Loading...
Error

Скачать Три сестрички (Виктор Волков) [2002, мелодрамма, VHSRip] торрент без регистрации

Статистика раздачи
Размер:  600 MB   |    Скачан:  25 раз
Сидов:  1  [  0 KB/s  ]  
 
 
 
Автор Сообщение

Marsianka

[] 

Три сестрички (2002) VHSrip
Название: Три сестрички
Год выхода: 2002
Жанр: мелодрамма
Режиссер:Виктор Волков
В ролях: Никита Выгузов, Марина Борукова, Алена Павлова, Татьяна Шитова, Михаил Горский, Дмитрий Дьяконов, Алексей Панин

О фильме: Поэт, гитарист да еще и боец ВДВ! Женскому сердцу трудно устоять перед таким славным парнем. Поэтому лечение в гарнизонном госпитале оборачивается для гвардии рядового счастливым, хотя и непродолжительным романом. Сразу с тремя очаровательными медсестрами...


Выпущено: "Бумеранг"
Продолжительность: 00:52:26
Перевод: Не требуется
General
Complete name : 3_sestrichki.avi
Format : AVI
Format/Info : Audio Video Interleave
File size : 600 MiB
Duration : 52mn 26s
Overall bit rate : 1 599 Kbps
Writing application : VirtualDubMod 1.5.4.1 (build 2178/release)
Writing library : VirtualDubMod build 2178/release

Video
ID : 0
Format : MPEG-4 Visual
Format profile : Advanced Simple@L5
Format settings, BVOP : 1
Format settings, QPel : No
Format settings, GMC : No warppoints
Format settings, Matrix : Custom
Codec ID : XVID
Codec ID/Hint : XviD
Duration : 52mn 26s
Bit rate : 1 336 Kbps
Width : 768 pixels
Height : 448 pixels
Display aspect ratio : 1.714
Frame rate : 25.000 fps
Color space : YUV
Chroma subsampling : 4:2:0
Bit depth : 8 bits
Scan type : Progressive
Compression mode : Lossy
Bits/(Pixel*Frame) : 0.155
Stream size : 501 MiB (84%)
Writing library : XviD 1.2.0.dev47 (UTC 2006-11-01)

Audio
ID : 1
Format : AC-3
Format/Info : Audio Coding 3
Mode extension : CM (complete main)
Format settings, Endianness : Big
Codec ID : 2000
Duration : 52mn 26s
Bit rate mode : Constant
Bit rate : 256 Kbps
Channel(s) : 2 channels
Channel positions : Front: L R
Sampling rate : 48.0 KHz
Bit depth : 16 bits
Compression mode : Lossy
Stream size : 96.0 MiB (16%)
Alignment : Split accross interleaves
Interleave, duration : 96 ms (2.40 video frames)
Interleave, preload duration : 96 ms



Скачать Три.сестрички.(Виктор.Волков).[2002.мелодрамма.VHSRip].torrent без регистрации
Золото ЗОЛОТАЯ РАЗДАЧА! СКАЧАННОЕ НЕ ЗАСЧИТЫВАЕТСЯ! Золото
Дата: Зарегистрирован   [ Тип: внутренний ] Как тут cкачать?
MAGNET ссылка
MAGNET ссылка


Скачать .torrent

13 KB

Статус: проверено DHT
Скачан: торрент - 25 раз, раздача полностью - 0 раз
Размер: 600 MB
Оценка:  - (Голосов: 0)
Поблагодарили: 0
Поделиться ссылкой на эту раздачу с друзьями:
В контактеFacebookОдноклассникиTwitterLivejournalМой МирLiveinternet
 

 
Показать сообщения:    


Вы не можете начинать темы
Вы не можете отвечать на сообщения
Вы не можете редактировать свои сообщения
Вы не можете удалять свои сообщения
Вы не можете голосовать в опросах
Вы не можете прикреплять файлы к сообщениям
Вы можете скачивать файлы