Loading...
Error

Скачать Операция «Хромит» / Operation Chromite / Incheonsangryookjakjun (Джон Х. Ли) [2016, боевик, драма, военный, история, BDRip] [720p] [MVO (GreenРай Studio)] торрент без регистрации

Статистика раздачи
Размер:  3,57 GB   |    Скачан:  45 раз
Сидов:  1  [  0 KB/s  ]  
 
 
 
Автор Сообщение

МихаНЕзатор

[] 

Информация о фильме
Наименование: Операция «Хромит»
Оригинальное наименование: Operation Chromite / Incheonsangryookjakjun
Произведено: Корея Южная
Категория: боевик, драма, военный, история
Режиссер постановщик: Джон Х. Ли

В главных ролях: Ли Джон-джэ, Ли Бом-су, Лиам Нисон, Чин Сэ-ён, Дин Доусон, Ким Джин-у, Ким Бён-ок

О фильме: Лето 1950 года. Самый разгар Корейской войны. Армия северян вторглась через границу, захватила Сеул и оттеснила остатки южнокорейских войск и сил ООН за Пусанский периметр. 95% полуострова уже принадлежит солдатам Ким Ир Сена, но в Пусан прибывает 70-летний генерал США Дуглас Макартур, получивший от ООН все полномочия на ведение наземных операций.
Макартур разрабатывает отчаянный план Инчхонской десантной операции (или операции «Хромит»), согласно которому южнокорейские и американские морпехи должны высадиться в самом тылу врага и переломить ход войны. В центре сюжета этой картины — история предшествующей десанту разведоперации «X-Ray», о цели которой знали только генерал Макартур и восемь южнокорейских добровольцев. «Я отдаю себе отчёт в том, что шансы на удачу в Инчхоне составляют один к пяти тысячам, — сказал Макартур, — но мне не привыкать. Мы высадимся в Инчхоне, и я их разобью.»

Релиз от:

Файл
Качество: BDRip 720p
Видео данные: MKV, 1280x536 (2.40:1), 23.976 fps, 4000 Кбит/с
Аудио данные: AC3, 2 ch, 640 Кбит/с
Перевод: Любительский многоголосый (GreenРай Studio)
Продолжительность: 01:51:03

АНОНСЫ ПОПУЛЯРНЫХ РАЗДАЧ

Над релизом работали:
Состав дикторов: Илья Кочетков, Богдан Иванчук и Нана Саркисян
Руководитель проекта и координатор: Евгений Овчаренко
Организатор и координатор: Никита Марков
Пиар менеджер студии: Игорь Обухов
Техническая поддержка: Александр Методий
General
Unique ID : 197828418124937589113557534444187538250 (0x94D45E1001F65B86AF5CBB94C21BD34A)
Complete name : D:Операция ХромитOperation.Chromite.2016.P.BDRip.720p.mkv
Format : Matroska
Format version : Version 4 / Version 2
File size : 3.57 GiB
Duration : 1 h 51 min
Overall bit rate mode : Constant
Overall bit rate : 4 576 kb/s
Encoded date : UTC 2017-11-24 07:11:43
Writing application : mkvmerge v8.3.0 ('Over the Horizon') 64bit
Writing library : libebml v1.3.1 + libmatroska v1.4.2

Video
ID : 1
Format : AVC
Format/Info : Advanced Video Codec
Format profile : Main@L3.1
Format settings, CABAC : Yes
Format settings, ReFrames : 3 frames
Codec ID : V_MPEG4/ISO/AVC
Duration : 1 h 51 min
Bit rate mode : Constant
Bit rate : 4 000 kb/s
Width : 1 280 pixels
Height : 536 pixels
Display aspect ratio : 2.40:1
Frame rate mode : Constant
Frame rate : 23.976 (23976/1000) FPS
Standard : NTSC
Color space : YUV
Chroma subsampling : 4:2:0
Bit depth : 8 bits
Scan type : Progressive
Bits/(Pixel*Frame) : 0.243
Stream size : 3.07 GiB (86%)
Language : English
Default : Yes
Forced : No
Color range : Limited

Audio
ID : 2
Format : AC-3
Format/Info : Audio Coding 3
Mode extension : CM (complete main)
Format settings, Endianness : Big
Codec ID : A_AC3
Duration : 1 h 51 min
Bit rate mode : Constant
Bit rate : 640 kb/s
Channel(s) : 2 channels
Channel positions : Front: L R
Sampling rate : 48.0 kHz
Frame rate : 31.250 FPS (1536 spf)
Compression mode : Lossy
Stream size : 511 MiB (14%)
Default : Yes
Forced : No



Скачать Операция.«Хромит».Operation.Chromite.Incheonsangryookjakjun.(Джон.Х.Ли).[2016.боевик.драма.военный.история.BDRip].[720p].[MVO.(GreenРай.Studio)].torrent без регистрации
Золото ЗОЛОТАЯ РАЗДАЧА! СКАЧАННОЕ НЕ ЗАСЧИТЫВАЕТСЯ! Золото
Дата: Зарегистрирован   [ Тип: внутренний ] Как тут cкачать?
MAGNET ссылка
MAGNET ссылка


Скачать .torrent

19 KB

Статус: проверено DHT
Скачан: торрент - 45 раз, раздача полностью - 34 раз
Размер: 3,57 GB
Оценка:  - (Голосов: 0)
Поблагодарили: 1
Поделиться ссылкой на эту раздачу с друзьями:
В контактеFacebookОдноклассникиTwitterLivejournalМой МирLiveinternet
 

 
Показать сообщения:    


Вы не можете начинать темы
Вы не можете отвечать на сообщения
Вы не можете редактировать свои сообщения
Вы не можете удалять свои сообщения
Вы не можете голосовать в опросах
Вы не можете прикреплять файлы к сообщениям
Вы можете скачивать файлы