Loading...
Error

Скачать Каратель / The Punisher (Сезон 01) (Энди Годдард, Марк Йобст, Кари Скогланд) [2017, фантастика, боевик, триллер, драма, криминал, приключения, WEBRip] [720p] [MVO] (Good People) торрент без регистрации

Статистика раздачи
Размер:  39,84 GB   |    Скачан:  4 раза
Сидов:  1  [  0 KB/s  ]  
 
 
 
Автор Сообщение

leon030982

[] 

Каратель / The Punisher

Год выпуска: 2017
Страна: США
Производство: Walt Disney Television, NetFlix, Marvel Entertainment, ABC Studios
Жанр: фантастика, боевик, триллер, драма, криминал, приключения
Продолжительность: 1х ~00:52:00
Перевод: Профессиональный (многоголосый, закадровый) | Good People
Субтитры:английские

Режиссеры: Энди Годдард, Марк Йобст, Кари Скогланд

Авторы сценария: Стив Лайтфут, Майкл Джонс-Моралес, Джерри Конуэй

В ролях: Бен Барнс, Джон Бернтал, Джейсон Р. Мур, Эбон Мосс-Бакрак, Майкл Натансон, Джейми Рэй Ньюман, Эмбер Роуз Рева, Пол Шульц

Описание: После того, как семья Фрэнка Касла была убита во время перестрелки нескольких банд Нью-Йорка, он решает отомстить и начинает охоту на преступников города. В преступном мире он становится известен как Каратель...



Качество: WEBRip 720p
Формат: MKV
Видео кодек: AVC
Аудио кодек: AC3
Видео: H264, 1280x720, 23.976 fps, ~6500kbps, 0.307 bit/pixel
Аудио: 48.0 kHz, AC3, 6 ch, ~384 kbps avg - MVO
Аудио: 48.0 kHz, AC3, 6 ch, ~384 kbps avg - ENG
General
Unique ID : 174479021095583165194460665883803691524 (0x83436FE860691ED4AEC7526C922AAA04)
Complete name : Marvels.The.Punisher.S01E01.3.AM.720p.NF.WEBRip.DD5.1.x264-GoodPeople.mkv
Format : Matroska
Format version : Version 2
File size : 2.77 GiB
Duration : 51mn 23s
Overall bit rate : 7 704 Kbps
Encoded date : UTC 2017-11-24 02:28:47
Writing application : mkvmerge v5.4.0 ('Piper') built on Mar 10 2012 13:34:39
Writing library : libebml v1.2.3 + libmatroska v1.3.0
DURATION : 00:49:01.272000000
NUMBER_OF_FRAMES : 730
NUMBER_OF_BYTES : 25547
_STATISTICS_WRITING_APP : mkvmerge v17.0.0 ('Be Ur Friend') 64-bit
_STATISTICS_WRITING_DATE_UT : 2017-11-17 21:10:31
_STATISTICS_TAGS : BPS DURATION NUMBER_OF_FRAMES NUMBER_OF_BYTES

Video
ID : 1
Format : AVC
Format/Info : Advanced Video Codec
Format profile : High@L4.1
Format settings, CABAC : Yes
Format settings, ReFrames : 9 frames
Codec ID : V_MPEG4/ISO/AVC
Duration : 51mn 23s
Bit rate : 6 783 Kbps
Width : 1 280 pixels
Height : 720 pixels
Display aspect ratio : 16:9
Frame rate mode : Constant
Frame rate : 23.976 fps
Color space : YUV
Chroma subsampling : 4:2:0
Bit depth : 8 bits
Scan type : Progressive
Bits/(Pixel*Frame) : 0.307
Stream size : 2.43 GiB (88%)
Writing library : x264 core 152 r2851 ba24899
Encoding settings : cabac=1 / ref=9 / deblock=1:-3:-3 / analyse=0x3:0x133 / me=umh / subme=10 / psy=1 / psy_rd=1.00:0.00 / mixed_ref=1 / me_range=48 / chroma_me=1 / trellis=2 / 8x8dct=1 / cqm=0 / deadzone=21,11 / fast_pskip=0 / chroma_qp_offset=-2 / threads=12 / lookahead_threads=2 / sliced_threads=0 / nr=0 / decimate=0 / interlaced=0 / bluray_compat=0 / constrained_intra=0 / bframes=9 / b_pyramid=2 / b_adapt=2 / b_bias=0 / direct=3 / weightb=1 / open_gop=0 / weightp=2 / keyint=250 / keyint_min=23 / scenecut=40 / intra_refresh=0 / rc=crf / mbtree=0 / crf=18.0 / qcomp=0.60 / qpmin=0 / qpmax=69 / qpstep=4 / ip_ratio=1.40 / pb_ratio=1.30 / aq=3:0.70
Language : English
Default : Yes
Forced : No
DURATION : 00:51:23.456000000
NUMBER_OF_FRAMES : 73929
NUMBER_OF_BYTES : 2672673204
_STATISTICS_WRITING_APP : mkvmerge v17.0.0 ('Be Ur Friend') 64-bit
_STATISTICS_WRITING_DATE_UT : 2017-11-17 21:10:31
_STATISTICS_TAGS : BPS DURATION NUMBER_OF_FRAMES NUMBER_OF_BYTES

Audio #1
ID : 2
Format : AC-3
Format/Info : Audio Coding 3
Mode extension : CM (complete main)
Format settings, Endianness : Big
Codec ID : A_AC3
Duration : 51mn 23s
Bit rate mode : Constant
Bit rate : 384 Kbps
Channel(s) : 6 channels
Channel positions : Front: L C R, Side: L R, LFE
Sampling rate : 48.0 KHz
Compression mode : Lossy
Stream size : 141 MiB (5%)
Language : Russian
Default : Yes
Forced : No

Audio #2
ID : 3
Format : AC-3
Format/Info : Audio Coding 3
Mode extension : CM (complete main)
Format settings, Endianness : Big
Codec ID : A_AC3
Duration : 51mn 23s
Bit rate mode : Constant
Bit rate : 384 Kbps
Channel(s) : 6 channels
Channel positions : Front: L C R, Side: L R, LFE
Sampling rate : 48.0 KHz
Compression mode : Lossy
Stream size : 141 MiB (5%)
Language : English
Default : No
Forced : No

Text
ID : 4
Format : UTF-8
Codec ID : S_TEXT/UTF8
Codec ID/Info : UTF-8 Plain Text
Title : SDH
Language : English
Default : No
Forced : No



Скачать Каратель.The.Punisher.(Сезон.01).(Энди.Годдард.Марк.Йобст.Кари.Скогланд).[2017.фантастика.боевик.триллер.драма.криминал.приключения.WEBRip].[720p].[MVO].(Good.People).torrent без регистрации
Золото ЗОЛОТАЯ РАЗДАЧА! СКАЧАННОЕ НЕ ЗАСЧИТЫВАЕТСЯ! Золото
Дата: Зарегистрирован   [ Тип: внутренний ] Как тут cкачать?
MAGNET ссылка
MAGNET ссылка


Скачать .torrent

102 KB

Статус: проверено DHT
Скачан: торрент - 4 раз, раздача полностью - 1 раз
Размер: 39,84 GB
Оценка:  5 (Голосов: 1)
Поблагодарили: 1
Поделиться ссылкой на эту раздачу с друзьями:
В контактеFacebookОдноклассникиTwitterLivejournalМой МирLiveinternet
 

 
Показать сообщения:    


Вы не можете начинать темы
Вы не можете отвечать на сообщения
Вы не можете редактировать свои сообщения
Вы не можете удалять свои сообщения
Вы не можете голосовать в опросах
Вы не можете прикреплять файлы к сообщениям
Вы можете скачивать файлы