Loading...
Error

Скачать Девушка по вызову / The Girlfriend Experience (сезон 01) (Лодж Х. Керриган, Эми Саймец) [2016, драма, HDTVRip] [MVO] (FocusStudio) торрент без регистрации

Статистика раздачи
Размер:  4,55 GB   |    Скачан:  9 раз
Сидов:  1  [  0 KB/s  ]  
 
 
 
Автор Сообщение

leon030982

[] 

Девушка по вызову / The Girlfriend Experience

Год выхода: 2016
Жанр: драма
Страна: США
Производство: Transactional Pictures
Продолжительность: ~ 00:30:00
Перевод: Профессиональный (многоголосый) FocusStudio
Субтитры: Русские (форсированные)

Режиссер: Лодж Х. Керриган, Эми Саймец

В ролях: Райли Кио, Пол Спаркс, Мэри Линн Райскаб, Сабрин Рок, Кейт Хьюлетт, Дженни Рэйвен, Оливия Паленстейн, Джефф Кларк, Кейт Лин Шейл и др.

Описание сериала: Студентка юридического факультета Кристин погружается в новый для нее мир эскорта исключительно из прагматических соображений. Но она оказывается не готова к трудностям, которые выпадают на долю тех, кто ведет двойную жизнь.



Файл
Качество: HDTVRip
Кодек: (AVI) XviD
Видео: 720x400, 23,976 fps, ~1500 kbps avg
Аудио: 48 kHz, MP3, 2 ch, ~128 kbps - MVO
Аудио: 48 kHz, MP3, 2 ch, ~128 kbps - ENG
General
Complete name : E:\The.Girlfriend.Experience.S01.HDTVRip.FocusStudio\The.Girlfriend.Experience.S01E01.HDTVRip.FocusStudio.avi
Format : AVI
Format/Info : Audio Video Interleave
File size : 343 MiB
Duration : 27 min 17 s
Overall bit rate : 1 758 kb/s
Writing application : VirtualDubMod 1.5.10.3 | www.virtualdub-fr.org || (build 2550/release)
Writing library : VirtualDubMod build 2550/release

Video
ID : 0
Format : MPEG-4 Visual
Format profile : Advanced Simple@L5
Format settings : BVOP1
Format settings, BVOP : 1
Format settings, QPel : No
Format settings, GMC : No warppoints
Format settings, Matrix : Default (MPEG)
Codec ID : XVID
Codec ID/Hint : XviD
Duration : 27 min 17 s
Bit rate : 1 422 kb/s
Width : 720 pixels
Height : 400 pixels
Display aspect ratio : 16:9
Frame rate : 23.976 (24000/1001) FPS
Color space : YUV
Chroma subsampling : 4:2:0
Bit depth : 8 bits
Scan type : Progressive
Compression mode : Lossy
Bits/(Pixel*Frame) : 0.206
Stream size : 277 MiB (81%)
Writing library : XviD 1.2.1 (UTC 2008-12-04)

Audio #1
ID : 1
Format : MPEG Audio
Format version : Version 1
Format profile : Layer 3
Format settings : Joint stereo / MS Stereo
Mode : Joint stereo
Mode extension : MS Stereo
Codec ID : 55
Codec ID/Hint : MP3
Duration : 27 min 17 s
Bit rate mode : Constant
Bit rate : 128 kb/s
Channel(s) : 2 channels
Sampling rate : 48.0 kHz
Compression mode : Lossy
Stream size : 25.0 MiB (7%)
Alignment : Aligned on interleaves
Title : Russian

Audio #2
ID : 2
Format : MPEG Audio
Format version : Version 1
Format profile : Layer 3
Format settings : Joint stereo / MS Stereo
Mode : Joint stereo
Mode extension : MS Stereo
Codec ID : 55
Codec ID/Hint : MP3
Duration : 27 min 17 s
Bit rate mode : Constant
Bit rate : 128 kb/s
Channel(s) : 2 channels
Sampling rate : 48.0 kHz
Compression mode : Lossy
Stream size : 25.0 MiB (7%)
Alignment : Aligned on interleaves
Title : English



Скачать Девушка.по.вызову.The.Girlfriend.Experience.(сезон.01).(Лодж.Х.Керриган.Эми.Саймец).[2016.драма.HDTVRip].[MVO].(FocusStudio).torrent без регистрации
Золото ЗОЛОТАЯ РАЗДАЧА! СКАЧАННОЕ НЕ ЗАСЧИТЫВАЕТСЯ! Золото
Дата: Зарегистрирован   [ Тип: внутренний ] Как тут cкачать?
MAGNET ссылка
MAGNET ссылка


Скачать .torrent

25 KB

Статус: проверено DHT
Скачан: торрент - 9 раз, раздача полностью - 3 раз
Размер: 4,55 GB
Оценка:  - (Голосов: 0)
Поблагодарили: 0
Поделиться ссылкой на эту раздачу с друзьями:
В контактеFacebookОдноклассникиTwitterLivejournalМой МирLiveinternet
 

 
Показать сообщения:    


Вы не можете начинать темы
Вы не можете отвечать на сообщения
Вы не можете редактировать свои сообщения
Вы не можете удалять свои сообщения
Вы не можете голосовать в опросах
Вы не можете прикреплять файлы к сообщениям
Вы можете скачивать файлы