Loading...
Error

Скачать Майские звезды (Станислав Ростоцкий) [1959, DVDRip-AVC] торрент без регистрации

Статистика раздачи
Размер:  1,09 GB   |    Скачан:  18 раз
Сидов:  1  [  0 KB/s  ]  
 
 
 
Автор Сообщение

Marsianka

[] 

Страна: СССР
Производство: Киностудия им. М. Горького, Баррандов

Жанр: военный
Год выпуска: 1959
Продолжительность: 01:27:42

Перевод: Не требуется
Cубтитры: нет
Оригинальная аудиодорожка: русский

Режиссер: Станислав Ростоцкий

В ролях:
Александр Ханов, Миша Станинец, Вячеслав Тихонов, Яна Брейхова, Яна Дитетова, Зденек Дите, Михаил Пуговкин, Николай Крючков, Леонид Быков, Юрий Белов, Олег Голубицкий, Николай Довженко, Леонид Чубаров, Франтишек Кройцман, Милош Недбал, Ладислав Пешек, Иржина Била, Иржина Богдалова, Франтишек Вноучек, Иржи Вондрович, Мария Ежкова, Вера Календова, Владимир Клеменс, Богуслав Купшовский, Марта Майева, Геда Маркова, Отто Мотычка, Мария Надемлейнска, Богуш Рендл, Вацлав Трегл, Иозеф Шидлиховский, Карел Эффа...
Об актёрах подробней

Описание:
Фильм состоит из четырёх новелл.
О первых днях мира после трудных годин войны, о счастье возвращения к мирному труду. События происходят в Праге в первый день после ее освобождения, в мае 1945 года.


Источник: DVD5 R5
Качество видео: DVDRip-AVC
Формат видео: MKV

Видео: 696->761x572 (4:3), 25 fps, H264 ~ 1391 kbps avg, 0.140 bit/pixel
Аудио: 48 kHz, Dolby Digital AC3 5.1, 384 kbps

Раздача от:

Общее
Полное имя : Mayskie.zvezdy.1959.DVDRip-AVC_[New-team]_by_AVP_Studio.mkv
Формат : Matroska
Версия формата : Version 2
Размер файла : 1,09 Гбайт
Продолжительность : 1 ч. 27 м.
Общий поток : 1777 Кбит/сек
Дата кодирования : UTC 2017-12-01 18:44:41
Программа кодирования : mkvmerge v6.1.0 ('Old Devil') built on Mar 4 2013 09:10:42
Библиотека кодирования : libebml v1.3.0 + libmatroska v1.4.0

Видео
Идентификатор : 1
Формат : AVC
Формат/Информация : Advanced Video Codec
Профиль формата : High@L4.1
Настройки формата : CABAC / 10 Ref Frames
Параметр CABAC формата : Да
Параметр RefFrames формата : 10 кадров
Идентификатор кодека : V_MPEG4/ISO/AVC
Продолжительность : 1 ч. 27 м.
Битрейт : 1391 Кбит/сек
Ширина : 696 пикселей
Высота : 572 пикселя
Соотношение сторон : 4:3
Режим частоты кадров : Постоянный
Частота кадров : 25,000 кадров/сек
Цветовое пространство : YUV
Субдискретизация насыщенности : 4:2:0
Битовая глубина : 8 бит
Тип развёртки : Прогрессивная
Бит/(Пиксели*Кадры) : 0.140
Размер потока : 852 Мбайт (76%)
Библиотека кодирования : x264 core 130 r2273 b3065e6
Настройки программы : cabac=1 / ref=10 / deblock=1:-2:-1 / analyse=0x3:0x113 / me=umh / subme=10 / psy=1 / psy_rd=1.00:0.00 / mixed_ref=1 / me_range=32 / chroma_me=1 / trellis=2 / 8x8dct=1 / cqm=0 / deadzone=21,11 / fast_pskip=1 / chroma_qp_offset=-2 / threads=6 / lookahead_threads=1 / sliced_threads=0 / nr=0 / decimate=0 / interlaced=0 / bluray_compat=0 / constrained_intra=0 / bframes=8 / b_pyramid=2 / b_adapt=2 / b_bias=0 / direct=3 / weightb=1 / open_gop=0 / weightp=2 / keyint=250 / keyint_min=25 / scenecut=40 / intra_refresh=0 / rc=2pass / mbtree=0 / bitrate=1391 / ratetol=1.0 / qcomp=0.60 / qpmin=0 / qpmax=69 / qpstep=4 / cplxblur=20.0 / qblur=0.5 / ip_ratio=1.40 / pb_ratio=1.30 / aq=1:1.00
Default : Да
Forced : Нет

Аудио
Идентификатор : 2
Формат : AC-3
Формат/Информация : Audio Coding 3
Идентификатор кодека : A_AC3
Продолжительность : 1 ч. 27 м.
Вид битрейта : Постоянный
Битрейт : 384 Кбит/сек
Каналы : 6 каналов
Расположение каналов : Front: L C R, Side: L R, LFE
Частота : 48,0 КГц
Частота кадров : 31,250 кадров/сек (1536 SPF)
Битовая глубина : 16 бит
Метод сжатия : С потерями
Размер потока : 241 Мбайт (22%)
Default : Да
Forced : Нет



Скачать Майские.звезды.(Станислав.Ростоцкий).[1959.DVDRip-AVC].torrent без регистрации
Золото ЗОЛОТАЯ РАЗДАЧА! СКАЧАННОЕ НЕ ЗАСЧИТЫВАЕТСЯ! Золото
Дата: Зарегистрирован   [ Тип: внутренний ] Как тут cкачать?
MAGNET ссылка
MAGNET ссылка


Скачать .torrent

12 KB

Статус: проверено DHT
Скачан: торрент - 18 раз, раздача полностью - 9 раз
Размер: 1,09 GB
Оценка:  - (Голосов: 0)
Поблагодарили: 0
Поделиться ссылкой на эту раздачу с друзьями:
В контактеFacebookОдноклассникиTwitterLivejournalМой МирLiveinternet
 

 
Показать сообщения:    


Вы не можете начинать темы
Вы не можете отвечать на сообщения
Вы не можете редактировать свои сообщения
Вы не можете удалять свои сообщения
Вы не можете голосовать в опросах
Вы не можете прикреплять файлы к сообщениям
Вы можете скачивать файлы