Loading...
Error

Скачать Ганнибал: Восхождение / Hannibal Rising (Питер Веббер) [2007, триллер, драма, BDRip-AVC] [MVO]+[Dub]+[AVO]+[Sub Rus, Eng]x2 торрент без регистрации

Статистика раздачи
Размер:  3,96 GB   |    Скачан:  20 раз
Сидов:  1  [  0 KB/s  ]  
 
 
 
Автор Сообщение

Marsianka

[] 

Производство: Великобритания, Чехия, Франция, Италия, Young Hannibal Productions, Carthago Films S.a.r.l., Dino De Laurentiis Company
Жанр: триллер, драма
Режиссер: Питер Веббер
Актеры: Гаспар Ульель, Гун Ли, Рис Иванс, Доминик Уэст, Кевин МакКидд, Ингеборга Дапкунайте, Ричард Лиф, Ааран Томас, Хелена Лиа Тачовска, Мишель Вэйд

Описание фильма:
Первая глава жизни самого знаменитого и хитроумного маньяка всех времен… Ему было шесть, когда на его глазах жестоко убили его семью. В двадцать, бежав во Францию, а затем в США, он получил блестящее образование психиатра. Впереди его ждала жизнь, полная привилегий. Но жажда мести за убийство семьи только разгоралась в нем…


Продолжительность: 02:10:32
Качество видео: BDRip-AVC
Профессиональный (многоголосый, закадровый), дублированный (расширенные сцены не переведены), авторский (одноголосый, закадровый) С.Рябов
Язык субтитров: Русский, английский
Вид субтитров: Вшитые отключаемые
Видео: AVC, 1024x428 (2.35:1), 23.976 fps, 2 999 Kbps (0.285 bit/pixel)
Аудио #1: AC-3, 48.0 KHz, 6 ch, 448 Kbps, CBR (Russian) - многоголосый
Аудио #2: AC-3, 48.0 KHz, 6 ch, 448 Kbps, CBR (Russian) - дубляж
Аудио #3: AC-3, 48.0 KHz, 6 ch, 448 Kbps, CBR (Russian) С.Рябов

Код:


Format                                   : Matroska
Format version                           : Version 2
File size                                : 3.96 GiB
Duration                                 : 2h 10mn
Overall bit rate                         : 4 339 Kbps
Movie name                               : Hannibal Rising Unrated (2007)
Encoded date                             : UTC 2015-03-01 10:34:58
Writing application                      : mkvmerge v5.3.0 ('I could have danced') built on Feb  9 2012 10:38:07
Writing library                          : libebml v1.2.3 + libmatroska v1.3.0
Attachment                               : Yes

Video
ID                                       : 1
Format                                   : AVC
Format/Info                              : Advanced Video Codec
Format profile                           : High@L4.1
Format settings, CABAC                   : Yes
Format settings, ReFrames                : 10 frames
Codec ID                                 : V_MPEG4/ISO/AVC
Duration                                 : 2h 10mn
Bit rate                                 : 2 999 Kbps
Width                                    : 1 024 pixels
Height                                   : 428 pixels
Display aspect ratio                     : 2.40:1
Frame rate mode                          : Constant
Frame rate                               : 23.976 fps
Color space                              : YUV
Chroma subsampling                       : 4:2:0
Bit depth                                : 8 bits
Scan type                                : Progressive
Bits/(Pixel*Frame)                       : 0.285
Stream size                              : 2.65 GiB (67%)
Writing library                          : x264 core 142 r2431 ac76440
Encoding settings                        : cabac=1 / ref=10 / deblock=1:-3:-3 / analyse=0x3:0x133 / me=umh / subme=10 / psy=1 / psy_rd=1.00:0.15 / mixed_ref=1 / me_range=32 / chroma_me=1 / trellis=2 / 8x8dct=1 / cqm=0 / deadzone=21,11 / fast_pskip=1 / chroma_qp_offset=-3 / threads=12 / lookahead_threads=2 / sliced_threads=0 / nr=0 / decimate=0 / interlaced=0 / bluray_compat=0 / constrained_intra=0 / bframes=8 / b_pyramid=2 / b_adapt=2 / b_bias=0 / direct=3 / weightb=1 / open_gop=0 / weightp=2 / keyint=240 / keyint_min=23 / scenecut=40 / intra_refresh=0 / rc=2pass / mbtree=0 / bitrate=2999 / ratetol=1.0 / qcomp=0.60 / qpmin=0 / qpmax=69 / qpstep=4 / cplxblur=20.0 / qblur=0.5 / ip_ratio=1.40 / pb_ratio=1.30 / aq=1:1.00
Language                                 : English
Default                                  : Yes
Forced                                   : No

Audio #1
ID                                       : 2
Format                                   : AC-3
Format/Info                              : Audio Coding 3
Mode extension                           : CM (complete main)
Format settings, Endianness              : Big
Codec ID                                 : A_AC3
Duration                                 : 2h 10mn
Bit rate mode                            : Constant
Bit rate                                 : 448 Kbps
Channel(s)                               : 6 channels
Channel positions                        : Front: L C R, Side: L R, LFE
Sampling rate                            : 48.0 KHz
Bit depth                                : 16 bits
Compression mode                         : Lossy
Stream size                              : 418 MiB (10%)
Title                                    : Многоголосый закадровый, Киномания| 448.00 kbps
Language                                 : Russian
Default                                  : Yes
Forced                                   : Yes

Audio #2
ID                                       : 3
Format                                   : AC-3
Format/Info                              : Audio Coding 3
Mode extension                           : CM (complete main)
Format settings, Endianness              : Big
Codec ID                                 : A_AC3
Duration                                 : 2h 10mn
Bit rate mode                            : Constant
Bit rate                                 : 448 Kbps
Channel(s)                               : 6 channels
Channel positions                        : Front: L C R, Side: L R, LFE
Sampling rate                            : 48.0 KHz
Bit depth                                : 16 bits
Compression mode                         : Lossy
Stream size                              : 418 MiB (10%)
Title                                    : Дубляж, Парадиз| 448.00 kbps
Language                                 : Russian
Default                                  : No
Forced                                   : No

Audio #3
ID                                       : 4
Format                                   : AC-3
Format/Info                              : Audio Coding 3
Mode extension                           : CM (complete main)
Format settings, Endianness              : Big
Codec ID                                 : A_AC3
Duration                                 : 2h 10mn
Bit rate mode                            : Constant
Bit rate                                 : 448 Kbps
Channel(s)                               : 6 channels
Channel positions                        : Front: L C R, Side: L R, LFE
Sampling rate                            : 48.0 KHz
Bit depth                                : 16 bits
Compression mode                         : Lossy
Stream size                              : 418 MiB (10%)
Title                                    : Одноголосый закадровый, С.Рябов| 448.00 kbps
Language                                 : Russian
Default                                  : No
Forced                                   : No

Text #1
ID                                       : 5
Format                                   : UTF-8
Codec ID                                 : S_TEXT/UTF8
Codec ID/Info                            : UTF-8 Plain Text
Language                                 : Russian
Default                                  : Yes
Forced                                   : No

Text #2
ID                                       : 6
Format                                   : UTF-8
Codec ID                                 : S_TEXT/UTF8
Codec ID/Info                            : UTF-8 Plain Text
Language                                 : English
Default                                  : No
Forced                                   : No

Menu
00:00:00.000                             : en:00:00:00.000
00:10:06.022                             : en:00:10:06.022
00:18:08.379                             : en:00:18:08.379
00:26:01.143                             : en:00:26:01.143
00:36:12.170                             : en:00:36:12.170
00:45:09.248                             : en:00:45:09.248
00:55:03.675                             : en:00:55:03.675
01:04:39.501                             : en:01:04:39.501
01:12:14.455                             : en:01:12:14.455
01:24:41.868                             : en:01:24:41.868
01:32:32.422                             : en:01:32:32.422
01:42:58.631                             : en:01:42:58.631
01:50:09.728                             : en:01:50:09.728
02:02:39.435                             : en:02:02:39.435



Скачать Ганнибал.Восхождение.Hannibal.Rising.(Питер.Веббер).[2007.триллер.драма.BDRip-AVC].[MVO]+[Dub]+[AVO]+[Sub.Rus.Eng]x2.torrent без регистрации
Золото ЗОЛОТАЯ РАЗДАЧА! СКАЧАННОЕ НЕ ЗАСЧИТЫВАЕТСЯ! Золото
Дата: Зарегистрирован   [ Тип: внутренний ] Как тут cкачать?
MAGNET ссылка
MAGNET ссылка


Скачать .torrent

21 KB

Статус: проверено DHT
Скачан: торрент - 20 раз, раздача полностью - 1 раз
Размер: 3,96 GB
Оценка:  - (Голосов: 0)
Поблагодарили: 0
Поделиться ссылкой на эту раздачу с друзьями:
В контактеFacebookОдноклассникиTwitterLivejournalМой МирLiveinternet
 

 
Показать сообщения:    


Вы не можете начинать темы
Вы не можете отвечать на сообщения
Вы не можете редактировать свои сообщения
Вы не можете удалять свои сообщения
Вы не можете голосовать в опросах
Вы не можете прикреплять файлы к сообщениям
Вы можете скачивать файлы