Loading...
Error

Скачать Проклятая нация / Damnation (Сезон 01, серии 01-02 из 08) (Адам Кэйн и др.) [2017, драма, криминал, вестерн, WEB-DL] [720p] [DVO] (Кубик в Кубе) торрент без регистрации

Статистика раздачи
Размер:  2,09 GB   |    Скачан:  4 раза
Сидов:  1  [  0 KB/s  ]  
 
 
 
Автор Сообщение

leon030982

[] 

Проклятая нация / Damnation

Год выпуска: 2017
Жанр: Драма, криминал, вестерн
Выпущено: США, Universal Cable Production
Продолжительность: ~ 00:50:00
Перевод: Профессиональный (двухголосый) Кубик в Кубе
Субтитры: English

Режиссер: Адам Кэйн, Род Лури, Эва Сёрхёуг

В ролях: Кристофер Хейердал, Тич Грант, Киллиан Скотт, Логан Маршалл-Грин, Сара Джонс, Арнольд Пиннок, Дэн Донохью, Дэвид Нэйсом, Вики Ламберт, Роэн Мид

О фильме: Действие разворачивается в маленьком городке в Айове в 1930-е. Туда практически одновременно прибывают молодой пастор, призывающий бедноту выступить против богатеев, и лихой штрейкбрехер, нанятый этими самыми богачами, чтобы помешать планам пастора. Никто в городе не догадывается, что эти двое — родные братья.



Релиз --
Работа со звуком: messafan

Файл
Качество: WEB-DL (720p)
Кодек: H.264
Видео: 1280x720 at 23.976 fps, MPEG-4 AVC, ~2000 kbps avg
Аудио: Russian: 48 kHz, AC3, 3/2 (L,C,R,l,r) + LFE ch, ~640.00 kbps avg |KvK|
Аудио: English: 48 kHz, AC3, 3/2 (L,C,R,l,r) + LFE ch, ~640.00 kbps avg
General
Unique ID : 170912960845877695872575342328191341778 (0x8094A3901C30BF5B922494B87E1754D2)
Complete name : E:\Damnation.S01.720p.WEB.CasStudio.TV\Damnation.S01E01.Sam.Rileys.Body.720p.WEB-DL.KvK.CasStudio.TV.mkv
Format : Matroska
Format version : Version 4 / Version 2
File size : 1.17 GiB
Duration : 54 min 39 s
Overall bit rate mode : Variable
Overall bit rate : 3 072 kb/s
Movie name : Damnation 01x01 (Sam Rileys Body) - release by messafan for CasStudio.TV
Encoded date : UTC 2017-11-13 17:46:31
Writing application : mkvmerge v6.7.0 ('Back to the Ground') 64bit built on Jan 8 2014 15:10:52
Writing library : libebml v1.3.0 + libmatroska v1.4.1

Video
ID : 1
Format : AVC
Format/Info : Advanced Video Codec
Format profile : High@L3.1
Format settings : CABAC / 5 Ref Frames
Format settings, CABAC : Yes
Format settings, RefFrames : 5 frames
Codec ID : V_MPEG4/ISO/AVC
Duration : 54 min 39 s
Bit rate mode : Variable
Bit rate : 1 731 kb/s
Maximum bit rate : 4 500 kb/s
Width : 1 280 pixels
Height : 720 pixels
Display aspect ratio : 16:9
Frame rate mode : Constant
Frame rate : 23.976 (24000/1001) FPS
Color space : YUV
Chroma subsampling : 4:2:0
Bit depth : 8 bits
Scan type : Progressive
Bits/(Pixel*Frame) : 0.078
Stream size : 677 MiB (56%)
Default : Yes
Forced : No
Color range : Limited
Color primaries : BT.709
Transfer characteristics : BT.709
Matrix coefficients : BT.709

Audio #1
ID : 2
Format : AC-3
Format/Info : Audio Coding 3
Format settings, Endianness : Big
Codec ID : A_AC3
Duration : 54 min 39 s
Bit rate mode : Constant
Bit rate : 640 kb/s
Channel(s) : 6 channels
Channel positions : Front: L C R, Side: L R, LFE
Sampling rate : 48.0 kHz
Frame rate : 31.250 FPS (1536 SPF)
Bit depth : 16 bits
Compression mode : Lossy
Stream size : 250 MiB (21%)
Title : KvK DD5.1 @ 640kbps
Language : Russian
Service kind : Complete Main
Default : Yes
Forced : No

Audio #2
ID : 3
Format : AC-3
Format/Info : Audio Coding 3
Format settings, Endianness : Big
Codec ID : A_AC3
Duration : 54 min 39 s
Bit rate mode : Constant
Bit rate : 640 kb/s
Channel(s) : 6 channels
Channel positions : Front: L C R, Side: L R, LFE
Sampling rate : 48.0 kHz
Frame rate : 31.250 FPS (1536 SPF)
Bit depth : 16 bits
Compression mode : Lossy
Stream size : 250 MiB (21%)
Title : English DD5.1 @ 640kbps
Language : English
Service kind : Complete Main
Default : No
Forced : No

Text
ID : 4
Format : UTF-8
Codec ID : S_TEXT/UTF8
Codec ID/Info : UTF-8 Plain Text
Title : Eng sub
Language : English
Default : No
Forced : No
Внимание! Раздача ведётся путём добавления новых серий; при каждом добавлении создаётся новый торрент. Чтобы начать докачку новой серии, пользователям необходимо сделать следующее:
(1) остановить скачивание,
(2) удалить старый торрент у себя из клиента (старые серии удалять не надо),
(3) скачать новый торрент и запустить его у себя в клиенте вместо старого, при этом указать клиенту путь в старую папку куда и должно происходить скачивание новых серий.
Ваш клиент при этом должен произвести хеширование (проверку) старой папки (если не производит сам - помогите ему сделать это), и будет докачивать только те серии которых у вас ещё нет. Старые серии при этом не удаляются, а продолжают раздаваться!
Eсли вы уже удалили старые серии, то предотвратить повторную закачку старых серий можно, отжав галочку в соответствующих местах при запуске нового торрента. По возможности, желательно не удалять старые серии как можно дольше чтобы релизёр не столько продолжал раздавать старые серии, а смог сконцентрироваться на новых.



Скачать Проклятая.нация.Damnation.(Сезон.01.серии.01-02.из.08).(Адам.Кэйн.и.др.).[2017.драма.криминал.вестерн.WEB-DL].[720p].[DVO].(Кубик.в.Кубе).torrent без регистрации
Золото ЗОЛОТАЯ РАЗДАЧА! СКАЧАННОЕ НЕ ЗАСЧИТЫВАЕТСЯ! Золото
Дата: Зарегистрирован   [ Тип: внутренний ] Как тут cкачать?
MAGNET ссылка
MAGNET ссылка


Скачать .torrent

11 KB

Статус: проверено DHT
Скачан: торрент - 4 раз, раздача полностью - 0 раз
Размер: 2,09 GB
Оценка:  - (Голосов: 0)
Поблагодарили: 0
Поделиться ссылкой на эту раздачу с друзьями:
В контактеFacebookОдноклассникиTwitterLivejournalМой МирLiveinternet
 

 
Показать сообщения:    


Вы не можете начинать темы
Вы не можете отвечать на сообщения
Вы не можете редактировать свои сообщения
Вы не можете удалять свои сообщения
Вы не можете голосовать в опросах
Вы не можете прикреплять файлы к сообщениям
Вы можете скачивать файлы