Loading...
Error

Скачать BBC: Планета Земля 2 / Planet Earth II [01-06 из 06] (Джастин Андерсон) [2016, документальный, BDRip] [1080p] [DVO]+[Sub]x3 торрент без регистрации

Статистика раздачи
Размер:  42,63 GB   |    Скачан:  23 раза
Сидов:  1  [  0 KB/s  ]  
 
 
 
Автор Сообщение

Marsianka

[] 

Планета Земля 2 / Planet Earth II

Страна: Великобритания Производство: BBC America, BBC Television Centre, Zweites Deutsches Fernsehen (ZDF)
Год выпуска: 2016
Жанр: документальный
Количество выпусков: 1-6 (из 6)
Продолжительность: 6х ~00:59:00

Режиссер: Джастин Андерсон
Комментарии: Дэвид Аттенборо

Описание: Продолжение сериала «Планета Земля» показывает Землю такой, какой её ещё никто не видел прежде. Невероятные по красоте пейзажи и самые заповедные и малоизученные уголки нашей планеты. Беспрецедентный для документального фильма бюджет и ещё больший масштаб. Новейшие режимы съемки и детализации картинки, сделали возможным показать великолепие нашей природы во всех подробностях...



Перевод для серий №1-6: Любительский (одноголосый) | Jimmy J. / Дмитрий Чепусов
Перевод для серий №1-6: Профессиональный (двухголосый, закадровый) | студия Омикрон
Субтитры: русские, украинские, английские
Качество: BDRip 1080p
Формат: МКV
Видео кодек: AVC
Аудио кодек: АС3 | DTS
Видео: 1920x1080 (16:9), 25.000 fps, MPEG-4 AVC ~13.9 Мbps avg
Формат субтитров: UTF-8 Plain Text
Аудио №1: 48.0 kHz, AC3 Dolby Digital, 3/2 (L,C,R,l,r) + LFE ch, ~640 kbps | RUS | Jimmy J. / Дмитрий Чепусов
Аудио №2: 48.0 kHz, AC3 Dolby Digital, 3/2 (L,C,R,l,r) + LFE ch, ~640 kbps | RUS | студия Омикрон
Аудио №3: 48.0 kHz, AC3 Dolby Digital, 3/2 (L,C,R,l,r) + LFE ch, ~640 kbps | UKR | VO / Ю.Онищенко (aka Logos71)
Аудио №4: 48.0 kHz, Digital Theater Systems, 3/2 (L,C,R,l,r) + LFE ch, ~1509 kbps / 16 bits | ENG
Дата премьеры (мир): 6 ноября 2016



Благодарность в создании данного релиза: DeTorquemada, SHORTBREHD

Complete name : Planet.Earth.II.Episode1.1080p.BDRip.mkv
Format : Matroska
Format version : Version 1
File size : 7.26 GiB
Duration : 58mn 38s
Overall bit rate : 17.7 Mbps
Movie name : Create by DeTorquemada for HDCLUB
Encoded date : UTC 2016-12-13 20:21:47
Writing application : mkvmerge v2.1.0 ('Another Place To Fall') built on Aug 19 2007 13:40:07
Writing library : libebml v0.7.7 + libmatroska v0.8.1

Video
ID : 1
Format : AVC
Format/Info : Advanced Video Codec
Format profile : High@L4.1
Format settings, CABAC : Yes
Format settings, ReFrames : 4 frames
Codec ID : V_MPEG4/ISO/AVC
Duration : 58mn 38s
Bit rate : 13.9 Mbps
Width : 1 920 pixels
Height : 1 080 pixels
Display aspect ratio : 16:9
Frame rate mode : Constant
Frame rate : 25.000 fps
Color space : YUV
Chroma subsampling : 4:2:0
Bit depth : 8 bits
Scan type : Progressive
Bits/(Pixel*Frame) : 0.269
Stream size : 5.71 GiB (79%)
Title : Планета Земля 2. Эпизод 1: Острова / Planet Earth II. Episode 1: Islands (2016)- Realise for HDCLUB
Writing library : x264 core 148 r2721 72d53ab
Encoding settings : cabac=1 / ref=4 / deblock=1:-3:-3 / analyse=0x3:0x113 / me=umh / subme=10 / psy=1 / psy_rd=1.00:0.00 / mixed_ref=1 / me_range=32 / chroma_me=1 / trellis=2 / 8x8dct=1 / cqm=0 / deadzone=21,11 / fast_pskip=1 / chroma_qp_offset=-2 / threads=6 / lookahead_threads=1 / sliced_threads=0 / nr=0 / decimate=1 / interlaced=0 / bluray_compat=0 / constrained_intra=0 / bframes=8 / b_pyramid=2 / b_adapt=2 / b_bias=0 / direct=1 / weightb=1 / open_gop=0 / weightp=2 / keyint=250 / keyint_min=25 / scenecut=40 / intra_refresh=0 / rc_lookahead=40 / rc=crf / mbtree=0 / crf=18.0 / qcomp=0.60 / qpmin=0 / qpmax=69 / qpstep=4 / vbv_maxrate=50000 / vbv_bufsize=62500 / crf_max=0.0 / nal_hrd=none / filler=0 / ip_ratio=1.40 / pb_ratio=1.30 / aq=1:0.80
Language : English
Default : Yes
Forced : No
Color range : Limited
Matrix coefficients : BT.709
Statistics Tags Issue : mkvmerge v8.9.0 ('Father Daughter') 32bit 2016-12-08 05:10:19 / mkvmerge v2.1.0 ('Another Place To Fall') built on Aug 19 2007 13:40:07 2016-12-13 20:21:47
FromStats_BitRate : 14310211
FromStats_Duration : 00:58:35.040000000
FromStats_FrameCount : 87876
FromStats_StreamSize : 6287620947

Audio #1
ID : 2
Format : AC-3
Format/Info : Audio Coding 3
Mode extension : CM (complete main)
Format settings, Endianness : Big
Codec ID : A_AC3
Duration : 58mn 38s
Bit rate mode : Constant
Bit rate : 640 Kbps
Channel(s) : 6 channels
Channel positions : Front: L C R, Side: L R, LFE
Sampling rate : 48.0 KHz
Frame rate : 31.250 fps (1536 spf)
Compression mode : Lossy
Stream size : 268 MiB (4%)
Title : VO (Jimmy J.)
Language : Russian
Default : Yes
Forced : No

Audio #2
ID : 3
Format : AC-3
Format/Info : Audio Coding 3
Mode extension : CM (complete main)
Format settings, Endianness : Big
Codec ID : A_AC3
Duration : 58mn 38s
Bit rate mode : Constant
Bit rate : 640 Kbps
Channel(s) : 6 channels
Channel positions : Front: L C R, Side: L R, LFE
Sampling rate : 48.0 KHz
Frame rate : 31.250 fps (1536 spf)
Compression mode : Lossy
Stream size : 268 MiB (4%)
Title : DVO (Омикрон)
Language : Russian
Default : No
Forced : No

Audio #3
ID : 4
Format : AC-3
Format/Info : Audio Coding 3
Mode extension : CM (complete main)
Format settings, Endianness : Big
Codec ID : A_AC3
Duration : 58mn 38s
Bit rate mode : Constant
Bit rate : 640 Kbps
Channel(s) : 6 channels
Channel positions : Front: L C R, Side: L R, LFE
Sampling rate : 48.0 KHz
Frame rate : 31.250 fps (1536 spf)
Compression mode : Lossy
Stream size : 268 MiB (4%)
Title : VO Ukr (Ю.Онищенко)
Language : Ukrainian
Default : No
Forced : No

Audio #4
ID : 5
Format : DTS
Format/Info : Digital Theater Systems
Mode : 16
Format settings, Endianness : Big
Codec ID : A_DTS
Duration : 58mn 38s
Bit rate mode : Constant
Bit rate : 1 509 Kbps
Channel(s) : 6 channels
Channel positions : Front: L C R, Side: L R, LFE
Sampling rate : 48.0 KHz
Frame rate : 93.750 fps (512 spf)
Bit depth : 16 bits
Compression mode : Lossy
Stream size : 633 MiB (9%)
Title : DTS 5.1 @ 1509 kbps - Narrated by David Attenborough
Language : English
Default : No
Forced : No
Statistics Tags Issue : mkvmerge v8.9.0 ('Father Daughter') 32bit 2016-12-08 05:10:19 / mkvmerge v2.1.0 ('Another Place To Fall') built on Aug 19 2007 13:40:07 2016-12-13 20:21:47
FromStats_BitRate : 1508999
FromStats_Duration : 00:58:35.041000000
FromStats_FrameCount : 329535
FromStats_StreamSize : 663024420

Text #1
ID : 6
Format : UTF-8
Codec ID : S_TEXT/UTF8
Codec ID/Info : UTF-8 Plain Text
Language : Russian
Default : Yes
Forced : No

Text #2
ID : 7
Format : UTF-8
Codec ID : S_TEXT/UTF8
Codec ID/Info : UTF-8 Plain Text
Language : Ukrainian
Default : No
Forced : No

Text #3
ID : 8
Format : UTF-8
Codec ID : S_TEXT/UTF8
Codec ID/Info : UTF-8 Plain Text
Title : Subtitles/Captions (SDH)
Language : English
Default : No
Forced : No
Statistics Tags Issue : mkvmerge v8.9.0 ('Father Daughter') 32bit 2016-12-08 05:10:19 / mkvmerge v2.1.0 ('Another Place To Fall') built on Aug 19 2007 13:40:07 2016-12-13 20:21:47
FromStats_BitRate : 44
FromStats_Duration : 00:57:47.920000000
FromStats_FrameCount : 467
FromStats_StreamSize : 19435

Menu
00:00:00.000 : en:
00:11:55.678 : en:
00:18:03.000 : en:
00:32:22.000 : en:
00:41:18.679 : en:
00:49:56.559 : en:
Торрент-файл обновлён: в заключительные 5 и 6 серии добавлен русский перевод от студии «Омикрон», а также украинский перевод и украинские субтитры от Ю.Онищенка (ник - Logos71).



Скачать BBC.Планета.Земля.2.Planet.Earth.II.[01-06.из.06].(Джастин.Андерсон).[2016.документальный.BDRip].[1080p].[DVO]+[Sub]x3.torrent без регистрации
Золото ЗОЛОТАЯ РАЗДАЧА! СКАЧАННОЕ НЕ ЗАСЧИТЫВАЕТСЯ! Золото
Дата: Зарегистрирован   [ Тип: внутренний ] Как тут cкачать?
MAGNET ссылка
MAGNET ссылка


Скачать .torrent

215 KB

Статус: проверено DHT
Скачан: торрент - 23 раз, раздача полностью - 2 раз
Размер: 42,63 GB
Оценка:  - (Голосов: 0)
Поблагодарили: 1
Поделиться ссылкой на эту раздачу с друзьями:
В контактеFacebookОдноклассникиTwitterLivejournalМой МирLiveinternet
 

 
Показать сообщения:    


Вы не можете начинать темы
Вы не можете отвечать на сообщения
Вы не можете редактировать свои сообщения
Вы не можете удалять свои сообщения
Вы не можете голосовать в опросах
Вы не можете прикреплять файлы к сообщениям
Вы можете скачивать файлы