Loading...
Error

Скачать История рыцаря / A Knight's Tale (Брайан Хелгеленд) [2001, приключения, мелодрама, комедия, BDRip-AVC] [Dub]+[AVO]+[Оригинал]+[Sub Rus, Eng]x2 торрент без регистрации

Статистика раздачи
Размер:  4,24 GB   |    Скачан:  22 раза
Сидов:  1  [  0 KB/s  ]  
 
 
 
Автор Сообщение

Marsianka

[] 


Информация о фильме
Название: История рыцаря
Оригинальное название: A Knight's Tale
Год выхода: 2001
Жанр: приключения, мелодрама, комедия
Режиссер: Брайан Хелгеленд

В ролях:
Хит Леджер — Уильям Тэтчер / Сэр Ульрих фон Лихтенштайн, Шэннин Соссамон — Леди Джоселин, Пол Беттани — Джеффри Чосер, Беренис Бежо — Кристиана, Руфус Сьюэлл — Граф Адемар, Лора Фрейзер — Кейт Кузнец, Кристофер Кейзнов — Джон Тэтчер, Марк Эдди — Роланд, Алан Тудик — Уэтт, Джеймс Пьюрфой — Эдуард Чёрный Принц.

О фильме:
Он не подчинялся ни одному правилу, ибо был создан для того, чтобы их нарушать. После гибели своего господина слуга Уильям решается на отчаянную авантюру. Юноше удается изменить свою родословную и, присвоив себе доспехи и оружие ушедшего хозяина, предстать перед публикой молодым и родовитым рыцарем Ульрихом фон Лихтенштейном.

Теперь в новом качестве ему предстоит доказывать свое благородное происхождение на рыцарских турнирах копьем и мечом. Отвага и решимость сэра Уильяма закалилась в бесчисленных схватках. Но в качестве последнего испытания пылкому сердцу великого самозванца послана страстная любовь, которой под силу выбить из седла самого неустрашимого воина…



Страна: США
Студия: Columbia Pictures Corporation, Black and Blu Entertainment, Escape Artists, Finestkind
Продолжительность: 02:12:09
Перевод: Дублированный, Авторский одноголосый, Оригинал

Файл
Кодек: x264
Качество: BDRip-AVC
Видео: 1024x436 (2.35:1), 23.976 fps, 3500 kbps


Аудио #1: AC3, 192 Kbps, 48.0 KHz, 2 ch (Rus) Дублированный, Невафильм
Аудио #2: AC3, 448 Kbps, 48.0 KHz, 6 ch (Rus) Авторский одноголосый, В.Котов
Аудио #3: AC3, 448 Kbps, 48.0 KHz, 6 ch (Eng) Оригинал
Субтитры: Русские, Английские
Format : Matroska
Format version : Version 2
File size : 4.24 GiB
Duration : 2 h 12 min
Overall bit rate : 4 588 kb/s
Encoded date : UTC 2017-05-10 21:57:03
Writing application : mkvmerge v5.4.0 ('Piper') built on Mar 10 2012 13:34:39
Writing library : libebml v1.2.3 + libmatroska v1.3.0

Video
ID : 1
Format : AVC
Format/Info : Advanced Video Codec
Format profile : High@L4.1
Format settings : CABAC / 9 Ref Frames
Format settings, CABAC : Yes
Format settings, RefFrames : 9 frames
Muxing mode : Header stripping
Codec ID : V_MPEG4/ISO/AVC
Duration : 2 h 12 min
Bit rate : 3 500 kb/s
Width : 1 024 pixels
Height : 436 pixels
Display aspect ratio : 2.35:1
Frame rate mode : Constant
Frame rate : 23.976 FPS
Color space : YUV
Chroma subsampling : 4:2:0
Bit depth : 8 bits
Scan type : Progressive
Bits/(Pixel*Frame) : 0.327
Stream size : 3.15 GiB (74%)
Title : A Knight's Tale / История рыцаря (2001)
Writing library : x264 core 130 r2273 b3065e6
Encoding settings : cabac=1 / ref=9 / deblock=1:-3:-3 / analyse=0x3:0x133 / me=umh / subme=11 / psy=1 / psy_rd=1.00:0.25 / mixed_ref=1 / me_range=32 / chroma_me=1 / trellis=2 / 8x8dct=1 / cqm=0 / deadzone=21,11 / fast_pskip=0 / chroma_qp_offset=-4 / threads=6 / lookahead_threads=1 / sliced_threads=0 / nr=0 / decimate=0 / interlaced=0 / bluray_compat=0 / constrained_intra=0 / bframes=8 / b_pyramid=2 / b_adapt=2 / b_bias=0 / direct=3 / weightb=1 / open_gop=0 / weightp=2 / keyint=240 / keyint_min=23 / scenecut=40 / intra_refresh=0 / rc=2pass / mbtree=0 / bitrate=3500 / ratetol=1.0 / qcomp=0.60 / qpmin=0 / qpmax=69 / qpstep=4 / cplxblur=20.0 / qblur=0.5 / ip_ratio=1.40 / pb_ratio=1.30 / aq=1:1.00
Language : English
Default : Yes
Forced : No

Audio #1
ID : 2
Format : AC-3
Format/Info : Audio Coding 3
Muxing mode : Header stripping
Codec ID : A_AC3
Duration : 2 h 12 min
Bit rate mode : Constant
Bit rate : 192 kb/s
Channel(s) : 2 channels
Channel positions : Front: L R
Sampling rate : 48.0 kHz
Frame rate : 31.250 FPS (1536 SPF)
Bit depth : 16 bits
Compression mode : Lossy
Stream size : 181 MiB (4%)
Title : DUB (Russian) Невафильм
Language : Russian
Service kind : Complete Main
Default : Yes
Forced : No

Audio #2
ID : 3
Format : AC-3
Format/Info : Audio Coding 3
Muxing mode : Header stripping
Codec ID : A_AC3
Duration : 2 h 12 min
Bit rate mode : Constant
Bit rate : 448 kb/s
Channel(s) : 6 channels
Channel positions : Front: L C R, Side: L R, LFE
Sampling rate : 48.0 kHz
Frame rate : 31.250 FPS (1536 SPF)
Bit depth : 16 bits
Compression mode : Lossy
Stream size : 423 MiB (10%)
Title : AVO (В.Котов)
Language : Russian
Service kind : Complete Main
Default : No
Forced : No

Audio #3
ID : 4
Format : AC-3
Format/Info : Audio Coding 3
Muxing mode : Header stripping
Codec ID : A_AC3
Duration : 2 h 12 min
Bit rate mode : Constant
Bit rate : 448 kb/s
Channel(s) : 6 channels
Channel positions : Front: L C R, Side: L R, LFE
Sampling rate : 48.0 kHz
Frame rate : 31.250 FPS (1536 SPF)
Bit depth : 16 bits
Compression mode : Lossy
Stream size : 423 MiB (10%)
Title : Original (English)
Language : English
Service kind : Complete Main
Default : No
Forced : No

Text #1
ID : 5
Format : UTF-8
Codec ID : S_TEXT/UTF8
Codec ID/Info : UTF-8 Plain Text
Title : Rus
Language : Russian
Default : No
Forced : No

Text #2
ID : 6
Format : UTF-8
Codec ID : S_TEXT/UTF8
Codec ID/Info : UTF-8 Plain Text
Title : Eng
Language : English
Default : No
Forced : No

Menu
00:00:00.000 : en:Start
00:06:18.586 : en:Sir Ector Rides Again
00:14:25.698 : en:"Low Rider"
00:23:59.688 : en:Chaucer the Trudger
00:32:12.138 : en:Foxy Lady
00:38:43.612 : en:Master of 1000 Lances
00:44:11.523 : en:A Gambling Problem
00:56:44.317 : en:Sword on Foot
01:04:42.753 : en:"Takin' Care of Business"
01:09:52.813 : en:Kate the Smithee
01:20:29.407 : en:Count Adhemar
01:29:37.830 : en:Hark! the Herald Sings
01:40:02.413 : en:Ulric vs. Colville
01:44:02.236 : en:Adhemar vs. Ulric
01:49:39.573 : en:Dance Lesson
02:04:21.704 : en:"Golden Years"



Скачать История.рыцаря.A.Knight's.Tale.(Брайан.Хелгеленд).[2001.приключения.мелодрама.комедия.BDRip-AVC].[Dub]+[AVO]+[Оригинал]+[Sub.Rus.Eng]x2.torrent без регистрации
Золото ЗОЛОТАЯ РАЗДАЧА! СКАЧАННОЕ НЕ ЗАСЧИТЫВАЕТСЯ! Золото
Дата: Зарегистрирован   [ Тип: внутренний ] Как тут cкачать?
MAGNET ссылка
MAGNET ссылка


Скачать .torrent

12 KB

Статус: проверено DHT
Скачан: торрент - 22 раз, раздача полностью - 1 раз
Размер: 4,24 GB
Оценка:  - (Голосов: 0)
Поблагодарили: 0
Поделиться ссылкой на эту раздачу с друзьями:
В контактеFacebookОдноклассникиTwitterLivejournalМой МирLiveinternet
 

 
Показать сообщения:    


Вы не можете начинать темы
Вы не можете отвечать на сообщения
Вы не можете редактировать свои сообщения
Вы не можете удалять свои сообщения
Вы не можете голосовать в опросах
Вы не можете прикреплять файлы к сообщениям
Вы можете скачивать файлы