Loading...
Error

Скачать Пираты Карибского моря: Проклятие Черной жемчужины / Pirates of the Caribbean: The Curse of the Black Pearl (Гор Вербински) [2003, фэнтези, боевик, приключения, WEBRip] [1080p] [Dub]+[MVO]x2+[DVO]x2+[AVO]x3+[Оригинал Eng]+[Sub]x3 [Open Matte] торрент без регистрации

Статистика раздачи
Размер:  12,84 GB   |    Скачан:  20 раз
Сидов:  1  [  0 KB/s  ]  
 
 
 
Автор Сообщение

Marsianka

[] 

Информация о фильме
Название: Пираты Карибского моря: Проклятие Черной жемчужины
Оригинальное название: Pirates of the Caribbean: The Curse of the Black Pearl
Год выпуска: 2003
Жанр: фэнтези, боевик, приключения
Режиссер: Гор Вербински
В ролях: Джонни Депп (Jack Sparrow), Джеффри Раш (Barbossa), Орландо Блум (Will Turner), Кира Найтли (Elizabeth Swann), Джек Девенпорт (Norrington), Кевин МакНэлли (Joshamee Gibbs), Джонатан Прайс (Governor Weatherby Swann), Ли Аренберг (Pintel), Макензи Крук (Ragetti), Дэвид Бэйли (Cotton), Дэмиан О’Хейр (Lt. Gillette), Джиллз Нью (Murtogg)

О фильме:
Жизнь харизматичного авантюриста, капитана Джека Воробья, полная увлекательных приключений, резко меняется, когда его заклятый враг — капитан Барбосса — похищает корабль Джека, Черную Жемчужину, а затем нападает на Порт Ройал и крадет прекрасную дочь губернатора, Элизабет Свонн.

Друг детства Элизабет, Уилл Тернер, вместе с Джеком возглавляет спасательную экспедицию на самом быстром корабле Британии, в попытке вызволить девушку из плена и заодно отобрать у злодея Черную Жемчужину. Вслед за этой парочкой отправляется амбициозный коммодор Норрингтон, который к тому же числится женихом Элизабет.

Однако Уилл не знает, что над Барбоссой висит вечное проклятие, при лунном свете превращающее его с командой в живых скелетов. Проклятье будет снято лишь тогда, когда украденное золото Ацтеков будет возвращено пиратами на старое место.



MPAA: PG-13 - Детям до 13 лет просмотр не желателен

Страна: США
Студия: First Mate Productions Inc., Jerry Bruckheimer Films, Walt Disney Pictures
Продолжительность: 02:23:15
Перевод: Профессиональный (дублированный), Профессиональный (многоголосый, закадровый), Профессиональный (двухголосый, закадровый), Авторский (одноголосый, закадровый)

Релиз: | maksnew

Файл
Качество: WEBRip 1080p | Open Matte
Формат: Matroska
Видео: 1920x1080 at 23.976 fps, x264, ~5100 kbps avg
Аудио#1: Russian: 48 kHz, AC3, 3/2 (L,C,R,l,r) + LFE ch, ~640 kbps avg |Дубляж, Blu-ray CEE|
Аудио#2: Russian: 48 kHz, AC3, 3/2 (L,C,R,l,r) + LFE ch, ~448 kbps avg |Многоголосый закадровый, R5|
Аудио#3: Russian: 48 kHz, АС3, 3/2 (L,C,R,l,r) + LFE ch, ~384 kbps avg |Двухголосый закадровый, Парус-Видео|
Аудио34: Russian: 48 kHz, DTS, 3/2 (L,C,R,l,r) + LFE ch, ~1509 kbps avg |Двухголосый закадровый, П.Гланц и И.Королёва|
Аудио#5: Russian: 48 kHz, DTS, 3/2 (L,C,R,l,r) + LFE ch, ~1509 kbps avg |Авторский, А.Гаврилов|
Аудио#6: Russian: 48 kHz, DTS, 3/2 (L,C,R,l,r) + LFE ch, ~1509 kbps avg |Авторский, Ю.Живов|
Аудио#7: Russian: 48 kHz, АС3, 2/0 (L,R) ch, ~224 kbps avg |Авторский, А.Карповский|
Аудио#8: Ukrainian: 48 kHz, АС3, 2/0 (L,R) ch, ~192 kbps avg |Многоголосый закадровый|
Аудио#9: English: 48 kHz, DTS, 3/2 (L,C,R,l,r) + LFE ch, ~1509 kbps avg
Субтитры: Russian, Ukrainian, English
***Исходник с онлайн кинотеатра.
***Видеоряд локализован.
10 августа 2002 года в одном из павильонов, где проходили съемки, вспыхнул пожар. Никто из присутствовавших на съемочной площадке не пострадал, а ущерб от пожара был оценен в 350 тысяч долларов.
Первоначально фильм планировалось назвать просто «Пираты Карибского моря», однако чуть позже, в связи с возможным сиквелом, к названию приклеилась вторая половинка: «Проклятие Черной жемчужины».
Это первый фильм кинокомпании «Walt Disney Pictures», который получил возрастные ограничения (PG-13 - на просмотр допускаются только лица старше 13 лет).
Идея создания картины возникла под впечатлением от одноименного аттракциона в знаменитом Диснейленде. Мировая премьера состоялась, разумеется, в том же Диснейленде 28 июня 2003 года. К слову, это была первая премьера фильма, состоявшаяся здесь.
Герой Джонни Деппа, Джек Воробей, в фильме не раз сверкает своими золотыми зубами. Однако, немногие знают, что эти зубы вовсе не грим, а настоящие зубные имплантанты. Впрочем, продюсеру Джерри Брукхаймеру не понравилось обилие позолоты во рту Джонни, и он попросил оставить лишь пару-тройку зубов с золотым отблеском.
Продюсер Джерри Брукхаймер и режиссер Гор Вербински планировали вести съемки в гигантском искусственном бассейне, в котором ранее снимались «Титаник» и «Перл Харбор», однако съемочная группа «Хозяина морей» сработала оперативнее и арендовала этот павильон на то же самое время, в которое должны были проходить съемки «Пиратов».
Многие участники съемочного процесса страдали от морской болезни.
Эмблема «Веселого Роджера» (череп и две скрещенные кости на черном фоне), использованная в качестве пиратского флага на «Черной Жемчужине», впервые была придумана легендарным пиратом Джеком Рэкхемом. Кроме этого, он прославился тем, что включил в свою команду двух женщин - Мэри Рид и Энн Бонни. Кстати, одна из героинь фильма, Ана Мария - ничто иное как симбиоз вышеупомянутых пиратских барышень.
Внешний вид героя Джонни Деппа, его одежда и грим были подобраны специально для того, чтобы скрыть многочисленные татуировки на теле актера. Татуировка «Джека Воробья» в фильме на руке актера была ненастоящей, впрочем, после выхода на экраны фильма Джонни сделал себе точную копию этой татуировки, в честь своего сына Джека.
Незабываемое поведение Джека Воробья Депп смоделировал с одного из лучших своих друзей Кита Ричардса, почему-то решив, что пираты 18 века очень сильно походят на звезд рок-сцены.
Идея создания фильма вынашивалась сценаристами Тедом Эллиотом и Терри Россио уже давно, однако, в первый раз в начале 90-х продюсеры ответили на это предложение отказом.
Досмотрите финальные титры до конца, т. к. после них следует небольшая сцена.
После того как фильм стал хитом, компания «Disney» закрыла аттракцион «Пираты Карибского моря» в Диснейлэндах, для того чтобы немного переделать его. В аттракцион добавили сюжетную линию, в которой капитан Барбосса преследовал Джека Воробья.
На испанском «Isla de Muerta» означает «остров мертвых», «Tortuga» - черепаха.
Сцена, в которой Джек Воробей стоит на мачте тонущей лодки – ссылка на картину Бастера Китона «Навигатор» (1924).
Известная фраза Джека Воробья – «смекаешь?» (savvy?) – является импровизацией Джонни Деппа.
Одна из последних фраз фильма – «Поплывет к горизонту» (Bring me that horizon) - является импровизацией Джонни Деппа.
Кира Найтли, так же как и Джонни Депп, носила контактные линзы в последней сцене фильма.
Когда Уилл приходит в себя после нападения пиратов, на заднем фоне можно заметить ту же самую девочку, что сыграла юную Элизабет (Люсинда Драйзек).
Сцена, в которой Уилл и Джек идут под водой, держа над собой лодку, - это ссылка на «Красного корсара» (1952).
Изначально Алан Сильвестри должен был написать музыку для фильма, но был заменен Клаусом Бадельтом.
Согласно комментариям Джонни Деппа и Гора Вербински на DVD, имя губернатора Свонна – Уитерби, коммодора Норрингтона – Джеймс, Барбоссы – Гектор.
Ост-Индская торговая компания на самом деле клеймила пиратов буквой «P», однако клеймо ставилось на лоб, а не на руку.
Фразы Джека Воробья о евнухе являются импровизацией Джонни Деппа.
Джимми Баффетт мог сыграть одну из ролей в фильме.
Слова «пират» и «пиратство» произносятся по ходу действия фильма 56 раз.
Джонни Депп носил контактные линзы, которые служили ему в качестве солнцезащитных очков, для того чтобы не щуриться от яркого солнца.
Согласно комментариям сценаристов на DVD, Уилл Тёрнер - лучший фехтовальщик из всех персонажей фильма, далее следуют Барбосса и коммодор Норрингтон. Джек Воробей - худший из всех.
По версии британского канала «Channel 4» фильм занял четвертое место в списке «Лучших семейных фильмов».
Кира Найтли носила парик, т. к. из-за предыдущих ролей её волосы не были достаточной длины для роли Элизабет.
На роль Джека Воробья рассматривались кандидатуры Майкла Китона, Джима Керри и Кристофера Уокена.
На роль Уилла Тернера рассматривались кандидатуры Джуда Лоу, Юэна МакГрегора, Тоби Магуайра, Кристофера Мастерсона и Кристиана Бэйла.
Согласно комментариям на DVD, Джеффри Раш разработал теорию, согласно которой люди смотрят на экран слева направо точно так же, как читают книгу. Поэтому он старался, как можно чаще, находиться в левой части экрана, особенно в эпизодах с обезьяной и Кирой Найтли, так как в ином случае, по его словам, в данных сценах никто из зрителей его бы не заметил.
Джонни Депп согласился на участие в этом проекте, когда сценарий еще не был готов.
Общее
Уникальный идентификатор : 200863785898571652047660041077175166804 (0x971CF53F8564B398A629B0FBBC0D2754)
Полное имя : Pirates of the Caribbean The Curse of the Black Pearl (2003) WEB-DL 1080p [Open Matte] -BLUEBIRD.mkv
Формат : Matroska
Версия формата : Version 4 / Version 2
Размер файла : 12,8 Гбайт
Продолжительность : 2 ч. 23 м.
Общий поток : 12,8 Мбит/сек
Дата кодирования : UTC 2016-12-25 10:06:43
Программа кодирования : mkvmerge v9.6.0 ('Slave To Your Mind') 64bit
Библиотека кодирования : libebml v1.3.4 + libmatroska v1.4.5

Видео
Идентификатор : 1
Формат : AVC
Формат/Информация : Advanced Video Codec
Профиль формата : High@L4.1
Параметр CABAC формата : Да
Параметр ReFrames формата : 4 кадра
Идентификатор кодека : V_MPEG4/ISO/AVC
Продолжительность : 2 ч. 23 м.
Битрейт : 4648 Кбит/сек
Номинальный битрейт : 5120 Кбит/сек
Ширина : 1920 пикселей
Высота : 1080 пикселей
Соотношение сторон : 16:9
Режим частоты кадров : Постоянный
Частота кадров : 23,976 кадра/сек
Цветовое пространство : YUV
Субдискретизация насыщенности : 4:2:0
Битовая глубина : 8 бит
Тип развёртки : Прогрессивная
Бит/(Пиксели*Кадры) : 0.093
Размер потока : 4,65 Гбайт (36%)
Библиотека кодирования : x264 core 142
Настройки программы : cabac=1 / ref=3 / deblock=1:0:0 / analyse=0x3:0x113 / me=hex / subme=7 / psy=1 / psy_rd=1.00:0.00 / mixed_ref=1 / me_range=16 / chroma_me=1 / trellis=1 / 8x8dct=1 / cqm=0 / deadzone=21,11 / fast_pskip=1 / chroma_qp_offset=-2 / threads=36 / lookahead_threads=6 / sliced_threads=0 / nr=0 / decimate=1 / interlaced=0 / bluray_compat=0 / constrained_intra=0 / bframes=6 / b_pyramid=2 / b_adapt=1 / b_bias=0 / direct=1 / weightb=1 / open_gop=0 / weightp=2 / keyint=200 / keyint_min=20 / scenecut=0 / intra_refresh=0 / rc_lookahead=40 / rc=2pass / mbtree=1 / bitrate=5120 / ratetol=1.0 / qcomp=0.60 / qpmin=0 / qpmax=69 / qpstep=4 / cplxblur=20.0 / qblur=0.5 / vbv_maxrate=7680 / vbv_bufsize=20480 / nal_hrd=none / filler=0 / ip_ratio=1.40 / aq=1:1.00
Язык : English
Default : Да
Forced : Нет

Аудио #1
Идентификатор : 2
Формат : AC-3
Формат/Информация : Audio Coding 3
Расширение режима : CM (complete main)
Параметр Endianness формата : Big
Идентификатор кодека : A_AC3
Продолжительность : 2 ч. 23 м.
Вид битрейта : Постоянный
Битрейт : 640 Кбит/сек
Каналы : 6 каналов
Расположение каналов : Front: L C R, Side: L R, LFE
Частота : 48,0 КГц
Битовая глубина : 16 бит
Метод сжатия : С потерями
Размер потока : 656 Мбайт (5%)
Заголовок : Дубляж
Язык : Russian
Default : Да
Forced : Нет

Аудио #2
Идентификатор : 3
Формат : AC-3
Формат/Информация : Audio Coding 3
Расширение режима : CM (complete main)
Параметр Endianness формата : Big
Идентификатор кодека : A_AC3
Продолжительность : 2 ч. 23 м.
Вид битрейта : Постоянный
Битрейт : 448 Кбит/сек
Каналы : 6 каналов
Расположение каналов : Front: L C R, Side: L R, LFE
Частота : 48,0 КГц
Битовая глубина : 16 бит
Метод сжатия : С потерями
Размер потока : 459 Мбайт (3%)
Заголовок : R5
Язык : Russian
Default : Нет
Forced : Нет

Аудио #3
Идентификатор : 4
Формат : AC-3
Формат/Информация : Audio Coding 3
Расширение режима : CM (complete main)
Параметр Endianness формата : Big
Идентификатор кодека : A_AC3
Продолжительность : 2 ч. 23 м.
Вид битрейта : Постоянный
Битрейт : 384 Кбит/сек
Каналы : 6 каналов
Расположение каналов : Front: L C R, Side: L R, LFE
Частота : 48,0 КГц
Битовая глубина : 16 бит
Метод сжатия : С потерями
Размер потока : 393 Мбайт (3%)
Заголовок : Парус-видео
Язык : Russian
Default : Нет
Forced : Нет

Аудио #4
Идентификатор : 5
Формат : DTS
Формат/Информация : Digital Theater Systems
Режим : 16
Параметр Endianness формата : Big
Идентификатор кодека : A_DTS
Продолжительность : 2 ч. 23 м.
Вид битрейта : Постоянный
Битрейт : 1509 Кбит/сек
Каналы : 6 каналов
Расположение каналов : Front: L C R, Side: L R, LFE
Частота : 48,0 КГц
Битовая глубина : 24 бит
Метод сжатия : С потерями
Размер потока : 1,51 Гбайт (12%)
Заголовок : П.Гланц и И.Королёва
Язык : Russian
Default : Нет
Forced : Нет

Аудио #5
Идентификатор : 6
Формат : DTS
Формат/Информация : Digital Theater Systems
Режим : 16
Параметр Endianness формата : Big
Идентификатор кодека : A_DTS
Продолжительность : 2 ч. 23 м.
Вид битрейта : Постоянный
Битрейт : 1509 Кбит/сек
Каналы : 6 каналов
Расположение каналов : Front: L C R, Side: L R, LFE
Частота : 48,0 КГц
Битовая глубина : 24 бит
Метод сжатия : С потерями
Размер потока : 1,51 Гбайт (12%)
Заголовок : А.Гаврилов
Язык : Russian
Default : Нет
Forced : Нет

Аудио #6
Идентификатор : 7
Формат : DTS
Формат/Информация : Digital Theater Systems
Режим : 16
Параметр Endianness формата : Big
Идентификатор кодека : A_DTS
Продолжительность : 2 ч. 23 м.
Вид битрейта : Постоянный
Битрейт : 1509 Кбит/сек
Каналы : 6 каналов
Расположение каналов : Front: L C R, Side: L R, LFE
Частота : 48,0 КГц
Битовая глубина : 24 бит
Метод сжатия : С потерями
Размер потока : 1,51 Гбайт (12%)
Заголовок : Ю.Живов
Язык : Russian
Default : Нет
Forced : Нет

Аудио #7
Идентификатор : 8
Формат : AC-3
Формат/Информация : Audio Coding 3
Расширение режима : CM (complete main)
Параметр Endianness формата : Big
Идентификатор кодека : A_AC3
Продолжительность : 2 ч. 23 м.
Вид битрейта : Постоянный
Битрейт : 224 Кбит/сек
Каналы : 2 канала
Расположение каналов : Front: L R
Частота : 48,0 КГц
Битовая глубина : 16 бит
Метод сжатия : С потерями
Размер потока : 230 Мбайт (2%)
Заголовок : Карповский
Язык : Russian
Default : Нет
Forced : Нет

Аудио #8
Идентификатор : 9
Формат : AC-3
Формат/Информация : Audio Coding 3
Расширение режима : CM (complete main)
Параметр Endianness формата : Big
Идентификатор кодека : A_AC3
Продолжительность : 2 ч. 23 м.
Вид битрейта : Постоянный
Битрейт : 192 Кбит/сек
Каналы : 2 канала
Расположение каналов : Front: L R
Частота : 48,0 КГц
Битовая глубина : 16 бит
Метод сжатия : С потерями
Размер потока : 197 Мбайт (1%)
Язык : Ukrainian
Default : Нет
Forced : Нет

Аудио #9
Идентификатор : 10
Формат : DTS
Формат/Информация : Digital Theater Systems
Режим : 16
Параметр Endianness формата : Big
Идентификатор кодека : A_DTS
Продолжительность : 2 ч. 23 м.
Вид битрейта : Постоянный
Битрейт : 1509 Кбит/сек
Каналы : 6 каналов
Расположение каналов : Front: L C R, Side: L R, LFE
Частота : 48,0 КГц
Битовая глубина : 24 бит
Метод сжатия : С потерями
Размер потока : 1,51 Гбайт (12%)
Язык : English
Default : Нет
Forced : Нет

Текст #1
Идентификатор : 11
Формат : UTF-8
Идентификатор кодека : S_TEXT/UTF8
Идентификатор кодека/Информация : UTF-8 Plain Text
Язык : Russian
Default : Да
Forced : Нет

Текст #2
Идентификатор : 12
Формат : UTF-8
Идентификатор кодека : S_TEXT/UTF8
Идентификатор кодека/Информация : UTF-8 Plain Text
Язык : Russian
Default : Нет
Forced : Нет

Текст #3
Идентификатор : 13
Формат : UTF-8
Идентификатор кодека : S_TEXT/UTF8
Идентификатор кодека/Информация : UTF-8 Plain Text
Язык : Ukrainian
Default : Нет
Forced : Нет

Текст #4
Идентификатор : 14
Формат : UTF-8
Идентификатор кодека : S_TEXT/UTF8
Идентификатор кодека/Информация : UTF-8 Plain Text
Язык : English
Default : Нет
Forced : Нет



Скачать Пираты.Карибского.моря.Проклятие.Черной.жемчужины.Pirates.of.the.Caribbean.The.Curse.of.the.Black.Pearl.(Гор.Вербински).[2003.фэнтези.боевик.приключения.WEBRip].[1080p].[Dub]+[MVO]x2+[DVO]x2+[AVO]x3+[Оригинал.Eng]+[Sub]x3.[Open.Matte].torrent без регистрации
Золото ЗОЛОТАЯ РАЗДАЧА! СКАЧАННОЕ НЕ ЗАСЧИТЫВАЕТСЯ! Золото
Дата: Зарегистрирован   [ Тип: внутренний ] Как тут cкачать?
MAGNET ссылка
MAGNET ссылка


Скачать .torrent

65 KB

Статус: проверено DHT
Скачан: торрент - 20 раз, раздача полностью - 6 раз
Размер: 12,84 GB
Оценка:  - (Голосов: 0)
Поблагодарили: 0
Поделиться ссылкой на эту раздачу с друзьями:
В контактеFacebookОдноклассникиTwitterLivejournalМой МирLiveinternet
 

 
Показать сообщения:    


Вы не можете начинать темы
Вы не можете отвечать на сообщения
Вы не можете редактировать свои сообщения
Вы не можете удалять свои сообщения
Вы не можете голосовать в опросах
Вы не можете прикреплять файлы к сообщениям
Вы можете скачивать файлы