Loading...
Error

Скачать Они / They (Роберт Хармон) [2002, ужасы, триллер, детектив, WEB-DL] [1080p] [Open Matte] [MVO]+[Eng]x2+[Sub]x3 торрент без регистрации

Статистика раздачи
Размер:  9,13 GB   |    Скачан:  16 раз
Сидов:  1  [  0 KB/s  ]  
 
 
 
Автор Сообщение

Marsianka

[] 

Информация о фильме
Название: Они
Оригинальное название: They
Год выпуска: 2002
Жанр: ужасы, триллер, детектив
Режиссер: Роберт Хармон
В ролях: Лаура Риган (Julia Lund), Марк Блукас (Paul Loomis), Итэн Эмбри (Sam Burnside), Дагмара Доминчик (Terry Alba), Джон Абрахамс (Billy Parks), Александр Гоулд (Young Billy), Дезире Зуровски (Mary Parks), Марк Хилдрет (Troy), Джонатан Черри (Darren), Питер ЛаКруа (David Parks), Джессика Эмли (Young Julia), Джей Бразо (Dr. Booth)

О фильме:
Джулия Лундис с виду хорошо уравновешенная молодая женщина, готовящаяся получить степень магистра психологии. Однажды ночью она получает звонок от своего друга детства Билли. Билли сообщает Джулии, что ночные монстры, которые мучили их обоих в детстве, вернулись.

Прежде чем Джулия смогла его успокоить, Билли застрелился. Приехав на похороны, Джулия разговаривает с друзьями Билли по колледжу, которые говорят, что в детстве их тоже мучили кошмары. Уже находясь в напряжении перед защитой диплома, Джулия должна теперь бороться со сверхъестественным злом, угрожающим ее жизни…



MPAA: PG-13 - Детям до 13 лет просмотр не желателен

Страна: США, Канада
Студия: Dimension Films, Focus Features, Good Machine
Продолжительность: 01:30:08
Перевод: Профессиональный (многоголосый, закадровый) R5

Файл
Качество: WEB-DL 1080p | Open Matte
Формат: Matroska
Видео: 1920x1080 at 23.976 fps, MPEG-4 AVC, ~12100 kbps avg
Аудио#1: Russian: 48 kHz, AC3, 3/2 (L,C,R,l,r) + LFE ch, ~384 kbps avg |Многоголосый закадровый, R5|
Аудио#2: English: 48 kHz, DTS, 3/2 (L,C,R,l,r) + LFE ch, ~1509 kbps avg
Аудио#3: English: 48 kHz, EAC3, 2/0 (L,R) ch, ~224 kbps avg |Amazon|
Субтитры: Russian, English, English (SDH)
***Исходник видео - Amazon.
***Релиз - spartanec163.
Общее
Уникальный идентификатор : 204238057426774954053026542008531669610 (0x99A6D1ADCBD82652A9B90B654C1BD26A)
Полное имя : They.2002.Open.Matte.1080p.WEB-DL.Rus.Eng.mkv
Формат : Matroska
Версия формата : Version 4 / Version 2
Размер файла : 9,13 Гбайт
Продолжительность : 1 ч. 30 м.
Режим общего битрейта : Переменный
Общий поток : 14,5 Мбит/сек
Название фильма : They.2002.Open.Matte.1080p.WEB-DL.Rus.Eng-spartanec163
Дата кодирования : UTC 2017-12-05 13:59:53
Программа кодирования : mkvmerge v8.3.0 ('Over the Horizon') 64bit
Библиотека кодирования : libebml v1.3.1 + libmatroska v1.4.2

Видео
Идентификатор : 1
Формат : AVC
Формат/Информация : Advanced Video Codec
Профиль формата : High@L4.0
Параметр CABAC формата : Да
Параметр ReFrames формата : 4 кадра
Идентификатор кодека : V_MPEG4/ISO/AVC
Продолжительность : 1 ч. 30 м.
Вид битрейта : Переменный
Битрейт : 12,1 Мбит/сек
Максимальный битрейт : 15,0 Мбит/сек
Ширина : 1920 пикселей
Высота : 1080 пикселей
Соотношение сторон : 16:9
Режим частоты кадров : Постоянный
Частота кадров : 23,976 кадра/сек
Цветовое пространство : YUV
Субдискретизация насыщенности : 4:2:0
Битовая глубина : 8 бит
Тип развёртки : Прогрессивная
Бит/(Пиксели*Кадры) : 0.243
Размер потока : 7,62 Гбайт (83%)
Заголовок : WEB-DL 1080p (Amazon)
Язык : English
Default : Да
Forced : Нет
Основные цвета : BT.709
Характеристики трансфера : BT.709
Коэффициенты матрицы : BT.709

Аудио #1
Идентификатор : 2
Формат : AC-3
Формат/Информация : Audio Coding 3
Расширение режима : CM (complete main)
Параметр Endianness формата : Big
Идентификатор кодека : A_AC3
Продолжительность : 1 ч. 30 м.
Вид битрейта : Постоянный
Битрейт : 384 Кбит/сек
Каналы : 6 каналов
Расположение каналов : Front: L C R, Side: L R, LFE
Частота : 48,0 КГц
Битовая глубина : 16 бит
Метод сжатия : С потерями
Размер потока : 248 Мбайт (3%)
Заголовок : AC3 5.1 384Kbps (Профессиональный, многоголосый - R5)
Язык : Russian
Default : Да
Forced : Нет

Аудио #2
Идентификатор : 3
Формат : DTS
Формат/Информация : Digital Theater Systems
Режим : 16
Параметр Endianness формата : Big
Идентификатор кодека : A_DTS
Продолжительность : 1 ч. 30 м.
Вид битрейта : Постоянный
Битрейт : 1510 Кбит/сек
Каналы : 6 каналов
Расположение каналов : Front: L C R, Side: L R, LFE
Частота : 48,0 КГц
Битовая глубина : 16 бит
Метод сжатия : С потерями
Размер потока : 973 Мбайт (10%)
Заголовок : DTS 5.1 1509Kbps (Оригинал - BluRay)
Язык : English
Default : Нет
Forced : Нет

Аудио #3
Идентификатор : 4
Формат : E-AC-3
Формат/Информация : Audio Coding 3
Параметр Endianness формата : Big
Идентификатор кодека : A_EAC3
Продолжительность : 1 ч. 30 м.
Вид битрейта : Постоянный
Битрейт : 224 Кбит/сек
Каналы : 2 канала
Расположение каналов : Front: L R
Частота : 48,0 КГц
Метод сжатия : С потерями
Размер потока : 144 Мбайт (2%)
Заголовок : E-AC3 2.0 224Kbps (Оригинал - Amazon)
Язык : English
Default : Нет
Forced : Нет

Текст #1
Идентификатор : 5
Формат : UTF-8
Идентификатор кодека : S_TEXT/UTF8
Идентификатор кодека/Информация : UTF-8 Plain Text
Язык : Russian
Default : Нет
Forced : Нет

Текст #2
Идентификатор : 6
Формат : UTF-8
Идентификатор кодека : S_TEXT/UTF8
Идентификатор кодека/Информация : UTF-8 Plain Text
Язык : English
Default : Нет
Forced : Нет

Текст #3
Идентификатор : 7
Формат : UTF-8
Идентификатор кодека : S_TEXT/UTF8
Идентификатор кодека/Информация : UTF-8 Plain Text
Заголовок : SDH, Amazon
Язык : English
Default : Нет
Forced : Нет



Скачать Они.They.(Роберт.Хармон).[2002.ужасы.триллер.детектив.WEB-DL].[1080p].[Open.Matte].[MVO]+[Eng]x2+[Sub]x3.torrent без регистрации
Золото ЗОЛОТАЯ РАЗДАЧА! СКАЧАННОЕ НЕ ЗАСЧИТЫВАЕТСЯ! Золото
Дата: Зарегистрирован   [ Тип: внутренний ] Как тут cкачать?
MAGNET ссылка
MAGNET ссылка


Скачать .torrent

47 KB

Статус: проверено DHT
Скачан: торрент - 16 раз, раздача полностью - 2 раз
Размер: 9,13 GB
Оценка:  - (Голосов: 0)
Поблагодарили: 0
Поделиться ссылкой на эту раздачу с друзьями:
В контактеFacebookОдноклассникиTwitterLivejournalМой МирLiveinternet
 

 
Показать сообщения:    


Вы не можете начинать темы
Вы не можете отвечать на сообщения
Вы не можете редактировать свои сообщения
Вы не можете удалять свои сообщения
Вы не можете голосовать в опросах
Вы не можете прикреплять файлы к сообщениям
Вы можете скачивать файлы