Loading...
Error

Скачать Змеиный яд / Venom (Пьерс Хаггард, Тоуб Хупер) [1981, ужасы, триллер, BDRemux] [1080р] [VO]+[Оригинал Eng]+[Sub Rus, Eng]x2 торрент без регистрации

Статистика раздачи
Размер:  14,57 GB   |    Скачан:  15 раз

Полного источника не было: 20 минут

 
 
 
Автор Сообщение

Marsianka

[] 

Информация о фильме
Название: Змеиный яд
Оригинальное название: Venom
Год выхода: 1981
Жанр: ужасы, триллер
Режиссер: Пьерс Хаггард, Тоуб Хупер
В ролях: Клаус Кински, Оливер Рид, Никол Уильямсон, Сара Майлз, Стерлинг Хейден, Корнелия Шарп, Лэнс Холкомб, Сьюзен Джордж, Майк Гвилим, Пол Уильямсон

Описание: Клаус Кински великолепен в роли Джэкмела, немецкого преступника, который похищает американского мальчика, живущего в Лондоне. В этом ему помогают слуги подростка. По незнанию, мальчик случайно приобретает ядовитую змею, предназначенную для токсиколога Доктора Мэрион Стоу и смертоносная рептилия оказывается на свободе где-то в доме. Персонажи четко разделены на хороших и плохих, и все злодеи получают по заслугам. От Кински исходит тихая доминирующая угроза, а Рид хорош в роли взрывного, грубого злодея, всегда готового к насилию.



Страна: Великобритания
Продолжительность: 01:32:27
Любительский (одноголосый закадровый)
Субтитры: русские, английские
Оригинальная аудиодорожка: английский
Файл
Качество: BDRemux 1080р
Видео: MPEG-4 AVC Video; 20994 kbps; 1080p; 23.976 fps; 16:9; High Profile 4.1
Аудио 1: Russian; AC3; 48.0 KHz; 2ch; 192 Kbps
Аудио 2: English; FLAC; 48.0 KHz; 2ch; 1 189 Kbps
Аудио 3: English; AC3; 48.0 KHz; 2ch; 256 Kbps Commentary
Format : Matroska
Format version : Version 4 / Version 2
File size : 14.6 GiB
Duration : 1 h 32 min
Overall bit rate mode : Variable
Overall bit rate : 22.6 Mb/s
Encoded date : UTC 2017-03-03 08:17:31
Writing application : mkvmerge v8.3.0 ('Over the Horizon') 64bit
Writing library : libebml v1.3.1 + libmatroska v1.4.2
Attachments : poster.jpg

Video
ID : 1
Format : AVC
Format/Info : Advanced Video Codec
Format profile : High@L4.1
Format settings, CABAC : Yes
Format settings, ReFrames : 4 frames
Codec ID : V_MPEG4/ISO/AVC
Duration : 1 h 32 min
Bit rate mode : Variable
Bit rate : 20.9 Mb/s
Maximum bit rate : 39.0 Mb/s
Width : 1 920 pixels
Height : 1 080 pixels
Display aspect ratio : 16:9
Frame rate mode : Constant
Frame rate : 23.976 (24000/1001) FPS
Color space : YUV
Chroma subsampling : 4:2:0
Bit depth : 8 bits
Scan type : Progressive
Bits/(Pixel*Frame) : 0.421
Stream size : 13.5 GiB (93%)
Default : Yes
Forced : No

Audio #1
ID : 2
Format : AC-3
Format/Info : Audio Coding 3
Mode extension : CM (complete main)
Format settings, Endianness : Big
Codec ID : A_AC3
Duration : 1 h 32 min
Bit rate mode : Constant
Bit rate : 192 kb/s
Channel(s) : 2 channels
Channel positions : Front: L R
Sampling rate : 48.0 kHz
Frame rate : 31.250 FPS (1536 spf)
Bit depth : 16 bits
Compression mode : Lossy
Stream size : 127 MiB (1%)
Language : Russian
Default : Yes
Forced : No

Audio #2
ID : 3
Format : FLAC
Format/Info : Free Lossless Audio Codec
Codec ID : A_FLAC
Duration : 1 h 32 min
Bit rate mode : Variable
Bit rate : 1 189 kb/s
Channel(s) : 2 channels
Channel positions : Front: L R
Sampling rate : 48.0 kHz
Frame rate : 11.719 FPS (4096 spf)
Bit depth : 24 bits
Stream size : 786 MiB (5%)
Writing library : libFLAC 1.2.1 (UTC 2007-09-17)
Language : English
Default : No
Forced : No

Audio #3
ID : 4
Format : AC-3
Format/Info : Audio Coding 3
Mode extension : CM (complete main)
Format settings, Endianness : Big
Codec ID : A_AC3
Duration : 1 h 32 min
Bit rate mode : Constant
Bit rate : 256 kb/s
Channel(s) : 2 channels
Channel positions : Front: L R
Sampling rate : 48.0 kHz
Frame rate : 31.250 FPS (1536 spf)
Bit depth : 16 bits
Compression mode : Lossy
Stream size : 169 MiB (1%)
Language : English
Default : No
Forced : No

Text #1
ID : 5
Format : UTF-8
Codec ID : S_TEXT/UTF8
Codec ID/Info : UTF-8 Plain Text
Duration : 1 h 29 min
Bit rate : 64 b/s
Count of elements : 729
Stream size : 42.4 KiB (0%)
Language : Russian
Default : No
Forced : No

Text #2
ID : 6
Format : UTF-8
Codec ID : S_TEXT/UTF8
Codec ID/Info : UTF-8 Plain Text
Duration : 1 h 29 min
Bit rate : 53 b/s
Count of elements : 1128
Stream size : 34.8 KiB (0%)
Language : English
Default : No
Forced : No

Menu
00:00:00.000 : en:00:00:00.000
00:03:23.829 : en:00:03:23.829
00:07:54.724 : en:00:07:54.724
00:12:38.967 : en:00:12:38.967
00:15:44.360 : en:00:15:44.360
00:20:19.510 : en:00:20:19.510
00:24:53.158 : en:00:24:53.158
00:29:17.130 : en:00:29:17.130
00:35:07.647 : en:00:35:07.647
00:40:47.070 : en:00:40:47.070
00:45:12.627 : en:00:45:12.627
00:47:56.290 : en:00:47:56.290
00:54:34.813 : en:00:54:34.813
00:58:20.080 : en:00:58:20.080
01:03:48.199 : en:01:03:48.199
01:08:54.964 : en:01:08:54.964
01:15:22.351 : en:01:15:22.351
01:20:35.998 : en:01:20:35.998
01:23:32.633 : en:01:23:32.633
01:29:52.929 : en:01:29:52.929



Скачать Змеиный.яд.Venom.(Пьерс.Хаггард.Тоуб.Хупер).[1981.ужасы.триллер.BDRemux].[1080р].[VO]+[Оригинал.Eng]+[Sub.Rus.Eng]x2.torrent без регистрации
Золото ЗОЛОТАЯ РАЗДАЧА! СКАЧАННОЕ НЕ ЗАСЧИТЫВАЕТСЯ! Золото
Дата: Зарегистрирован   [ Тип: внутренний ] Как тут cкачать?
MAGNET ссылка
MAGNET ссылка


Скачать .torrent

74 KB

Статус: проверено DHT
Скачан: торрент - 15 раз, раздача полностью - 0 раз
Размер: 14,57 GB
Оценка:  - (Голосов: 0)
Поблагодарили: 0
Поделиться ссылкой на эту раздачу с друзьями:
В контактеFacebookОдноклассникиTwitterLivejournalМой МирLiveinternet
 

 
Показать сообщения:    


Вы не можете начинать темы
Вы не можете отвечать на сообщения
Вы не можете редактировать свои сообщения
Вы не можете удалять свои сообщения
Вы не можете голосовать в опросах
Вы не можете прикреплять файлы к сообщениям
Вы можете скачивать файлы