Loading...
Error

Скачать Бой местного значения (Алексей Козлов) [2008, драма, военный, WEB-DLRip] [1080p] торрент без регистрации

Статистика раздачи
Размер:  4,35 GB   |    Скачан:  41 раз

Полного источника не было: 2 месяца 27 дней

 
 
 
Автор Сообщение

gelo2gelo

[] 


Бой местного значения


Год выпуска: 2008
Выпущено: Россия
Жанр: драма, военный
Продолжительность: 01:36:32
Перевод: Не требуется

Режиссер: Алексей Козлов

В ролях: Алексей Бардуков, Николай Добрынин, Алексей Зубков, Сергей Шеховцов, Александр Тырымов, Кристина Бабушкина, Александр Александров, Елена Радевич, Дмитрий Сутырин, Ирина Умикова и др.

Описание: Конец 1943 года. Подразделение советских солдат во главе с молодым, ещё не нюхавшим войны, младшим лейтенантом останавливается в глухой деревеньке, стоящей в стороне от главных дорог. Её жители за всё время войны ни разу не видели немцев, поэтому внезапное появление здесь отборных диверсантов СС стало для всех полной неожиданностью...







Качество: WEB-DLRip
Формат: MKV
Видео кодек: H.264
Аудио кодек: AC3
Видео: 1892x1080, 6000 kbps, 25 fps
Аудио: AC3, 48 Hz, 6 ch, 448 kbps


General
Unique ID : 245008432198727610821730684709876438583 (0xB852E859C6F0744E8CA49D5F42F29637)
Complete name : D:\KINO\Бой местного значения\Бой местного значения_2008.mkv
Format : Matroska
Format version : Version 4 / Version 2
File size : 4.35 GiB
Duration : 1 h 36 min
Overall bit rate : 6 450 kb/s
Encoded date : UTC 2017-12-10 11:26:06
Writing application : mkvmerge v6.9.1 ('Blue Panther') 32bit built on Apr 18 2014 18:15:44
Writing library : libebml v1.3.0 + libmatroska v1.4.1

Video
ID : 1
Format : AVC
Format/Info : Advanced Video Codec
Format profile : High@L4.1
Format settings : CABAC / 4 Ref Frames
Format settings, CABAC : Yes
Format settings, ReFrames : 4 frames
Codec ID : V_MPEG4/ISO/AVC
Duration : 1 h 36 min
Bit rate : 6 000 kb/s
Width : 1 892 pixels
Height : 1 080 pixels
Display aspect ratio : 16:9
Frame rate mode : Constant
Frame rate : 25.000 FPS
Color space : YUV
Chroma subsampling : 4:2:0
Bit depth : 8 bits
Scan type : Progressive
Bits/(Pixel*Frame) : 0.117
Stream size : 3.96 GiB (91%)
Writing library : x264 core 152 r2851M ba24899
Encoding settings : cabac=1 / ref=4 / deblock=1:0:0 / analyse=0x3:0x113 / me=umh / subme=10 / psy=1 / psy_rd=1.00:0.00 / mixed_ref=1 / me_range=48 / chroma_me=1 / trellis=2 / 8x8dct=1 / cqm=0 / deadzone=6,6 / fast_pskip=0 / chroma_qp_offset=-2 / threads=9 / lookahead_threads=1 / sliced_threads=0 / nr=0 / decimate=0 / interlaced=0 / bluray_compat=0 / constrained_intra=0 / bframes=9 / b_pyramid=2 / b_adapt=2 / b_bias=0 / direct=3 / weightb=1 / open_gop=0 / weightp=2 / keyint=250 / keyint_min=25 / scenecut=40 / intra_refresh=0 / rc_lookahead=60 / rc=2pass / mbtree=1 / bitrate=6000 / ratetol=1.0 / qcomp=0.80 / qpmin=3 / qpmax=69 / qpstep=4 / cplxblur=20.0 / qblur=0.5 / ip_ratio=1.10 / aq=2:0.50
Default : Yes
Forced : No

Audio
ID : 2
Format : AC-3
Format/Info : Audio Coding 3
Codec ID : A_AC3
Duration : 1 h 36 min
Bit rate mode : Constant
Bit rate : 448 kb/s
Channel(s) : 6 channels
Channel positions : Front: L C R, Side: L R, LFE
Sampling rate : 48.0 kHz
Frame rate : 31.250 FPS (1536 SPF)
Bit depth : 16 bits
Compression mode : Lossy
Stream size : 309 MiB (7%)
Language : Russian
Service kind : Complete Main
Default : Yes
Forced : No





Скачать Бой.местного.значения.(Алексей.Козлов).[2008.драма.военный.WEB-DLRip].[1080p].torrent без регистрации
Золото ЗОЛОТАЯ РАЗДАЧА! СКАЧАННОЕ НЕ ЗАСЧИТЫВАЕТСЯ! Золото
Дата: Зарегистрирован   [ Тип: внутренний ] Как тут cкачать?
MAGNET ссылка
MAGNET ссылка


Скачать .torrent

22 KB

Статус: * не проверено
Скачан: торрент - 41 раз, раздача полностью - 2 раз
Размер: 4,35 GB
Оценка:  - (Голосов: 0)
Поблагодарили: 1
Поделиться ссылкой на эту раздачу с друзьями:
В контактеFacebookОдноклассникиTwitterLivejournalМой МирLiveinternet
 

 
Показать сообщения:    


Вы не можете начинать темы
Вы не можете отвечать на сообщения
Вы не можете редактировать свои сообщения
Вы не можете удалять свои сообщения
Вы не можете голосовать в опросах
Вы не можете прикреплять файлы к сообщениям
Вы можете скачивать файлы