Loading...
Error

Скачать Дикий Билл / Wild Bill (Уолтер Хилл) [1995, боевик, вестерн, биография, BDRip] [1080p] [DVO]x3+[AVO]+[Оригинал Eng] торрент без регистрации

Статистика раздачи
Размер:  8,17 GB   |    Скачан:  13 раз
Сидов:  1  [  0 KB/s  ]  
 
 
 
Автор Сообщение

Marsianka

[] 

Информация о фильме
Название: Дикий Билл
Оригинальное название: Wild Bill
Год выхода: 1995
Жанр: боевик, вестерн, биография
Режиссер: Уолтер Хилл
В ролях: Джефф Бриджес, Эллен Баркин, Джон Хёрт, Дайан Лэйн, Кит Кэрредин, Дэвид Аркетт, Кристина Эпплгейт, Брюс Дерн, Джеймс Гэммон, Марджо Гортнер, Джеймс Римар, Карен Хюи, Стив Ривис, Роберт Нотт, Пато Хоффманн, Патрик Горман, Ли де Бру, Стоуни Джексон, Роберт Питерс, Стивен Чэмберс

О фильме:
В городке Дэдвуде, штат Южная Дакота, Дикому Биллу суждено было встретить своего смертельного врага. На улицах появляется таинственный незнакомец, который объявляет, что не уедет, пока Хикок не умрет. Тем временем Дикий Билл продолжает веселиться в объятиях любвеобильной красотки Джейн, хотя в душе продолжает хранить память о другой — единственной любимой женщине. Страсти накаляются, и сюжет достигает своего наивысшего напряжения в кульминационной сцене, когда Хикок выходит на решающую схватку с врагом…


Страна: США
Студия: United Artists, The Zanuck Company
Продолжительность: 01:37:56
Профессиональный (двухголосый, закадровый) [НТВ+], авторский (одноголосый, закадровый) [Андрей Гаврилов], украинский профессиональный (двухголосый, закадровый) [1+1], украинский профессиональный (двухголосый, закадровый) [AMC]

Синхронизация звуковых дорожек и сбор контейнера - ad3wal3
Файл
Кодек: x264
Качество: BDRip 1080p
Видео: MPEG-4 AVC, 9669 Кбит/с, 1920x1040, 23.976 кадр/с

Аудио#1: Russian AC3, 48.0 khz, 2 ch, 192 kbps - DVO, [НТВ+]
Аудио#2: Russian AC3, 48.0 khz, 2 ch, 192 kbps - AVO, [А.Гаврилов]
Аудио#3: Ukrainian AC3, 48.0 khz, 2 ch, 192 kbps - DVO, [1+1]
Аудио#4: Ukrainian AC3, 48.0 khz, 2 ch, 192 kbps - DVO, [AMC]
Аудио#5: English DTS, 48.0 khz, 6 ch, 1509 kbps - Оригинал (английский)
Сэмпл: скачать
General
Unique ID : 180022220095628627899215439576702504496 (0x876F04B812920E87800806A071F5CE30)
Complete name : I:Wild.Bill.1995.BDRip.1080p.x264.2xRus.2xUkr.Eng.mkv
Format : Matroska
Format version : Version 4 / Version 2
File size : 8.17 GiB
Duration : 1 h 37 min
Overall bit rate : 11.9 Mb/s
Encoded date : UTC 2017-12-10 17:19:03
Writing application : mkvmerge v8.3.0 ('Over the Horizon') 32bit
Writing library : libebml v1.3.1 + libmatroska v1.4.2
Attachments : poster.jpg

Video
ID : 1
Format : AVC
Format/Info : Advanced Video Codec
Format profile : High@L4.1
Format settings, CABAC : Yes
Format settings, ReFrames : 4 frames
Codec ID : V_MPEG4/ISO/AVC
Duration : 1 h 37 min
Bit rate : 9 669 kb/s
Width : 1 920 pixels
Height : 1 040 pixels
Display aspect ratio : 1.85:1
Frame rate mode : Constant
Frame rate : 23.976 (24000/1001) FPS
Color space : YUV
Chroma subsampling : 4:2:0
Bit depth : 8 bits
Scan type : Progressive
Bits/(Pixel*Frame) : 0.202
Stream size : 6.61 GiB (81%)
Writing library : x264 core 152 r2851 ba24899
Encoding settings : cabac=1 / ref=4 / deblock=1:-3:-3 / analyse=0x3:0x113 / me=umh / subme=8 / psy=1 / psy_rd=1.00:0.25 / mixed_ref=1 / me_range=24 / chroma_me=1 / trellis=1 / 8x8dct=1 / cqm=0 / deadzone=21,11 / fast_pskip=1 / chroma_qp_offset=-4 / threads=30 / lookahead_threads=5 / sliced_threads=0 / nr=0 / decimate=1 / interlaced=0 / bluray_compat=0 / constrained_intra=0 / bframes=3 / b_pyramid=2 / b_adapt=1 / b_bias=0 / direct=3 / weightb=1 / open_gop=0 / weightp=2 / keyint=240 / keyint_min=24 / scenecut=40 / intra_refresh=0 / rc_lookahead=50 / rc=2pass / mbtree=1 / bitrate=9669 / ratetol=1.0 / qcomp=0.60 / qpmin=0 / qpmax=69 / qpstep=4 / cplxblur=20.0 / qblur=0.5 / ip_ratio=1.40 / aq=1:0.75
Language : English
Default : Yes
Forced : No

Audio #1
ID : 2
Format : AC-3
Format/Info : Audio Coding 3
Format settings, Endianness : Big
Codec ID : A_AC3
Duration : 1 h 37 min
Bit rate mode : Constant
Bit rate : 192 kb/s
Channel(s) : 2 channels
Channel positions : Front: L R
Sampling rate : 48.0 kHz
Frame rate : 31.250 FPS (1536 spf)
Bit depth : 16 bits
Compression mode : Lossy
Stream size : 134 MiB (2%)
Title : Профессиональный (двухголосый закадровый) НТВ+
Language : Russian
Service kind : Complete Main
Default : Yes
Forced : No

Audio #2
ID : 3
Format : AC-3
Format/Info : Audio Coding 3
Format settings, Endianness : Big
Codec ID : A_AC3
Duration : 1 h 37 min
Bit rate mode : Constant
Bit rate : 192 kb/s
Channel(s) : 2 channels
Channel positions : Front: L R
Sampling rate : 48.0 kHz
Frame rate : 31.250 FPS (1536 spf)
Bit depth : 16 bits
Compression mode : Lossy
Stream size : 134 MiB (2%)
Title : Авторский (одноголосый закадровый) Андрей Гаврилов
Language : Russian
Service kind : Complete Main
Default : No
Forced : No

Audio #3
ID : 4
Format : AC-3
Format/Info : Audio Coding 3
Format settings, Endianness : Big
Codec ID : A_AC3
Duration : 1 h 37 min
Bit rate mode : Constant
Bit rate : 192 kb/s
Channel(s) : 2 channels
Channel positions : Front: L R
Sampling rate : 48.0 kHz
Frame rate : 31.250 FPS (1536 spf)
Bit depth : 16 bits
Compression mode : Lossy
Stream size : 134 MiB (2%)
Title : Профессиональный (двухголосый закадровый) 1+1
Language : Ukrainian
Service kind : Complete Main
Default : No
Forced : No

Audio #4
ID : 5
Format : AC-3
Format/Info : Audio Coding 3
Format settings, Endianness : Big
Codec ID : A_AC3
Duration : 1 h 37 min
Bit rate mode : Constant
Bit rate : 192 kb/s
Channel(s) : 2 channels
Channel positions : Front: L R
Sampling rate : 48.0 kHz
Frame rate : 31.250 FPS (1536 spf)
Bit depth : 16 bits
Compression mode : Lossy
Stream size : 134 MiB (2%)
Title : Профессиональный (двухголосый закадровый) AMC
Language : Ukrainian
Service kind : Complete Main
Default : No
Forced : No

Audio #5
ID : 6
Format : DTS
Format/Info : Digital Theater Systems
Mode : 16
Format settings, Endianness : Big
Codec ID : A_DTS
Duration : 1 h 37 min
Bit rate mode : Constant
Bit rate : 1 509 kb/s
Channel(s) : 6 channels
Channel positions : Front: L C R, Side: L R, LFE
Sampling rate : 48.0 kHz
Frame rate : 93.750 FPS (512 spf)
Bit depth : 24 bits
Compression mode : Lossy
Stream size : 1.03 GiB (13%)
Title : Original
Language : English
Default : No
Forced : No

Menu
00:00:00.000 : en:00:00:00.000
00:04:45.869 : en:00:04:45.869
00:08:54.367 : en:00:08:54.367
00:11:31.065 : en:00:11:31.065
00:16:09.969 : en:00:16:09.969
00:19:46.685 : en:00:19:46.685
00:25:11.885 : en:00:25:11.885
00:28:24.328 : en:00:28:24.328
00:31:11.495 : en:00:31:11.495
00:34:43.748 : en:00:34:43.748
00:40:57.330 : en:00:40:57.330
00:46:31.872 : en:00:46:31.872
00:49:01.188 : en:00:49:01.188
00:52:58.759 : en:00:52:58.759
00:58:29.673 : en:00:58:29.673
01:01:51.875 : en:01:01:51.875
01:07:15.490 : en:01:07:15.490
01:10:57.170 : en:01:10:57.170
01:14:02.229 : en:01:14:02.229
01:18:20.487 : en:01:18:20.487
01:21:21.460 : en:01:21:21.460
01:26:42.781 : en:01:26:42.781
01:28:50.200 : en:01:28:50.200
01:32:11.526 : en:01:32:11.526



Скачать Дикий.Билл.Wild.Bill.(Уолтер.Хилл).[1995.боевик.вестерн.биография.BDRip].[1080p].[DVO]x3+[AVO]+[Оригинал.Eng].torrent без регистрации
Золото ЗОЛОТАЯ РАЗДАЧА! СКАЧАННОЕ НЕ ЗАСЧИТЫВАЕТСЯ! Золото
Дата: Зарегистрирован   [ Тип: внутренний ] Как тут cкачать?
MAGNET ссылка
MAGNET ссылка


Скачать .torrent

21 KB

Статус: проверено DHT
Скачан: торрент - 13 раз, раздача полностью - 0 раз
Размер: 8,17 GB
Оценка:  - (Голосов: 0)
Поблагодарили: 0
Поделиться ссылкой на эту раздачу с друзьями:
В контактеFacebookОдноклассникиTwitterLivejournalМой МирLiveinternet
 

 
Показать сообщения:    


Вы не можете начинать темы
Вы не можете отвечать на сообщения
Вы не можете редактировать свои сообщения
Вы не можете удалять свои сообщения
Вы не можете голосовать в опросах
Вы не можете прикреплять файлы к сообщениям
Вы можете скачивать файлы