Loading...
Error

Скачать Стон чёрной змеи / Black Snake Moan (Крэйг Брюэр) [2006, драма, BDRip] [1080p] [DVO]x2+[VO]+[MVO]+[Оригинал Eng]+[Sub Rus Eng]x2 торрент без регистрации

Статистика раздачи
Размер:  8,43 GB   |    Скачан:  28 раз
Сидов:  1  [  0 KB/s  ]  
 
 
 
Автор Сообщение

Marsianka

[] 

Информация о фильме
Название: Стон чёрной змеи
Оригинальное название: Black Snake Moan
Год выхода: 2006
Жанр: драма
Страна: США
Студия: New Deal Productions, Paramount Classics, Southern Cross the Dog Productions
Продолжительность: 01:55:33
Перевод: Профессиональный двухголосый, любительский двухголосый, любительский одноголосый, профессиональный многоголосый
Режиссер: Крэйг Брюэр / Craig Brewer
В ролях: Сэмюэл Л. Джексон, Кристина Риччи, Джастин Тимберлэйк, С. Эпата Меркерсон, Джон Котрэн мл., Дэвид Баннер, Майкл Рэймонд-Джеймс, Адриан Ленокс, Ким Ричардс
О фильме
Богобоязненный человек берет к себе на воспитание молодую девушку, страдающую типичными проблемами переходного возраста, навлекающими на себе всю череду возможных неприятностей. Ища, но не находя себе близкого человека, она углубляется в свои мысли, переполненные депрессивным содержанием. Замечая это, её воспитатель желает вылечить подопечную, показав, что жизнь не так уж и плоха.


Файл
Качество: BDRip 1080p
Видео: MPEG-4 AVC, 1920x800 (2.40:1), 8079 kbps, 23.976 fps, 0.219 bpp
Аудио 1: Russian: 48 kHz, AC3, 5.1 ch, 448 kbps - DVO, НТВ+
Аудио 2: Russian: 48 kHz, AC3, 5.1 ch, 448 kbps - DVO
Аудио 3: Russian: 48 kHz, AC3, 5.1 ch, 384 kbps - VO
Аудио 4: Ukrainian: 48 kHz, AC3, 5.1 ch, 448 kbps - MVO, Так треба
Аудио 5: English: 48 kHz, AC3, 5.1 ch, 640 kbps - Оригинал
Субтитры: Русские, английские
Навигация по главам: есть
General
Unique ID : 192649855772167928607869540733676083824 (0x90EF0339D7924D32AF107457059ADA70)
Complete name : Black.Snake.Moan.2006.BDRip.1080p.mkv
Format : Matroska
Format version : Version 2
File size : 8.43 GiB
Duration : 1 h 55 min
Overall bit rate : 10.4 Mb/s
Movie name : Black Snake Moan (2006)
Encoded date : UTC 2017-12-10 17:10:40
Writing application : mkvmerge v5.8.0 ('No Sleep / Pillow') built on Sep 2 2012 15:37:04
Writing library : libebml v1.2.3 + libmatroska v1.3.0

Video
ID : 1
Format : AVC
Format/Info : Advanced Video Codec
Format profile : High@L4.1
Format settings, CABAC : Yes
Format settings, RefFrames : 5 frames
Codec ID : V_MPEG4/ISO/AVC
Duration : 1 h 55 min
Bit rate : 8 079 kb/s
Width : 1 920 pixels
Height : 800 pixels
Display aspect ratio : 2.40:1
Frame rate mode : Constant
Frame rate : 23.976 FPS
Color space : YUV
Chroma subsampling : 4:2:0
Bit depth : 8 bits
Scan type : Progressive
Bits/(Pixel*Frame) : 0.219
Stream size : 6.35 GiB (75%)
Title : Black Snake Moan (2006)
Writing library : x264 core 130 r2273 b3065e6
Encoding settings : cabac=1 / ref=5 / deblock=1:-3:-3 / analyse=0x3:0x133 / me=umh / subme=11 / psy=1 / psy_rd=1.00:0.10 / mixed_ref=1 / me_range=32 / chroma_me=1 / trellis=2 / 8x8dct=1 / cqm=0 / deadzone=21,11 / fast_pskip=1 / chroma_qp_offset=-3 / threads=6 / lookahead_threads=1 / sliced_threads=0 / nr=0 / decimate=1 / interlaced=0 / bluray_compat=0 / constrained_intra=0 / bframes=8 / b_pyramid=2 / b_adapt=2 / b_bias=0 / direct=3 / weightb=1 / open_gop=0 / weightp=2 / keyint=250 / keyint_min=23 / scenecut=40 / intra_refresh=0 / rc_lookahead=60 / rc=2pass / mbtree=1 / bitrate=8079 / ratetol=1.0 / qcomp=0.60 / qpmin=0 / qpmax=69 / qpstep=4 / cplxblur=20.0 / qblur=0.5 / ip_ratio=1.40 / aq=1:1.00
Language : English
Default : Yes
Forced : No

Audio #1
ID : 2
Format : AC-3
Format/Info : Audio Coding 3
Format settings, Endianness : Big
Codec ID : A_AC3
Duration : 1 h 55 min
Bit rate mode : Constant
Bit rate : 448 kb/s
Channel(s) : 6 channels
Channel positions : Front: L C R, Side: L R, LFE
Sampling rate : 48.0 kHz
Frame rate : 31.250 FPS (1536 SPF)
Bit depth : 16 bits
Compression mode : Lossy
Stream size : 370 MiB (4%)
Title : DVO, HTB+
Language : Russian
Service kind : Complete Main
Default : Yes
Forced : No

Audio #2
ID : 3
Format : AC-3
Format/Info : Audio Coding 3
Format settings, Endianness : Big
Codec ID : A_AC3
Duration : 1 h 55 min
Bit rate mode : Constant
Bit rate : 448 kb/s
Channel(s) : 6 channels
Channel positions : Front: L C R, Side: L R, LFE
Sampling rate : 48.0 kHz
Frame rate : 31.250 FPS (1536 SPF)
Bit depth : 16 bits
Compression mode : Lossy
Stream size : 370 MiB (4%)
Title : DVO
Language : Russian
Service kind : Complete Main
Default : No
Forced : No

Audio #3
ID : 4
Format : AC-3
Format/Info : Audio Coding 3
Format settings, Endianness : Big
Codec ID : A_AC3
Duration : 1 h 55 min
Bit rate mode : Constant
Bit rate : 384 kb/s
Channel(s) : 6 channels
Channel positions : Front: L C R, Side: L R, LFE
Sampling rate : 48.0 kHz
Frame rate : 31.250 FPS (1536 SPF)
Bit depth : 16 bits
Compression mode : Lossy
Stream size : 317 MiB (4%)
Title : VO
Language : Russian
Service kind : Complete Main
Default : No
Forced : No

Audio #4
ID : 5
Format : AC-3
Format/Info : Audio Coding 3
Format settings, Endianness : Big
Codec ID : A_AC3
Duration : 1 h 55 min
Bit rate mode : Constant
Bit rate : 448 kb/s
Channel(s) : 6 channels
Channel positions : Front: L C R, Side: L R, LFE
Sampling rate : 48.0 kHz
Frame rate : 31.250 FPS (1536 SPF)
Bit depth : 16 bits
Compression mode : Lossy
Stream size : 370 MiB (4%)
Title : MVO, Так Треба Продакшн
Language : Ukrainian
Service kind : Complete Main
Default : No
Forced : No

Audio #5
ID : 6
Format : AC-3
Format/Info : Audio Coding 3
Format settings, Endianness : Big
Codec ID : A_AC3
Duration : 1 h 55 min
Bit rate mode : Constant
Bit rate : 640 kb/s
Channel(s) : 6 channels
Channel positions : Front: L C R, Side: L R, LFE
Sampling rate : 48.0 kHz
Frame rate : 31.250 FPS (1536 SPF)
Bit depth : 16 bits
Compression mode : Lossy
Stream size : 529 MiB (6%)
Title : Original
Language : English
Service kind : Complete Main
Default : No
Forced : No

Text #1
ID : 7
Format : UTF-8
Codec ID : S_TEXT/UTF8
Codec ID/Info : UTF-8 Plain Text
Language : Russian
Default : No
Forced : No

Text #2
ID : 8
Format : UTF-8
Codec ID : S_TEXT/UTF8
Codec ID/Info : UTF-8 Plain Text
Language : English
Default : No
Forced : No

Menu
00:00:00.000 : en:Through Their Love
00:07:23.526 : en:Say You Love Me
00:16:12.304 : en:Personal Demons
00:25:05.921 : en:Discovery
00:32:02.462 : en:Fever Dreams
00:40:34.306 : en:I Aim to Cure You
00:47:44.528 : en:Chained
00:52:51.668 : en:Showing Appreciation
00:59:07.377 : en:Whats Your Heaven?
01:05:47.860 : en:Discharge
01:15:14.301 : en:Howling Back
01:21:33.305 : en:Let It Out
01:28:02.110 : en:Night Owls
01:35:05.908 : en:That Kind of Blues
01:40:51.503 : en:Faith, Hope and Love
01:49:34.568 : en:Were Okay



Скачать Стон.чёрной.змеи.Black.Snake.Moan.(Крэйг.Брюэр).[2006.драма.BDRip].[1080p].[DVO]x2+[VO]+[MVO]+[Оригинал.Eng]+[Sub.Rus.Eng]x2.torrent без регистрации
Золото ЗОЛОТАЯ РАЗДАЧА! СКАЧАННОЕ НЕ ЗАСЧИТЫВАЕТСЯ! Золото
Дата: Зарегистрирован   [ Тип: внутренний ] Как тут cкачать?
MAGNET ссылка
MAGNET ссылка


Скачать .torrent

43 KB

Статус: проверено DHT
Скачан: торрент - 28 раз, раздача полностью - 2 раз
Размер: 8,43 GB
Оценка:  - (Голосов: 0)
Поблагодарили: 0
Поделиться ссылкой на эту раздачу с друзьями:
В контактеFacebookОдноклассникиTwitterLivejournalМой МирLiveinternet
 

 
Показать сообщения:    


Вы не можете начинать темы
Вы не можете отвечать на сообщения
Вы не можете редактировать свои сообщения
Вы не можете удалять свои сообщения
Вы не можете голосовать в опросах
Вы не можете прикреплять файлы к сообщениям
Вы можете скачивать файлы