Loading...
Error

Скачать Последний звёздный боец / The Last Starfighter (Ник Касл) [1984, фантастика, боевик, приключения, BDRemux] [1080p] [AVO]x2+[Оригинал Eng]+[Sub Rus, Eng]x2 торрент без регистрации

Статистика раздачи
Размер:  25,3 GB   |    Скачан:  30 раз

Полного источника не было: 22 минуты

 
 
 
Автор Сообщение

Marsianka

[] 

Название: Последний звёздный боец
Оригинальное название: The Last Starfighter
Год выхода: 1984
Жанр: фантастика, боевик, приключения
Режиссер: Ник Касл
В ролях: Кэй Е. Кьютер, Дэн Мэйсон, Лэнс Гест, Дэн О’Херлихи, Катрин Мэри Стюарт, Барбара Боссон, Норман Сноу, Роберт Престон, Крис Хеберт, Джон О’Лири, Уил Уитон

О фильме: Алекс Роган — обычный подросток, который живет в трейлерном парке с родителями, пытается попасть в престижный колледж и коротает вечера за случайно попавшим в их поселение игровым автоматом «Последний звездный боец». В очередной из тоскливых дней после очередного отказа на получение денег на учебу от очередного банка и очередной ссоры со своей девушкой Алексу удается набрать рекордное количество очков. В результате он при помощи рекрутера-инопланетянина по имени Центавр попадает в самую гущу галактической войны между Райлосом и Ко-Данской Армадой.



Страна: США
Студия: Universal Pictures
Продолжительность: 01:40:34
Перевод: Авторский (одноголосый, закадровый)
Субтитры: Русские, английские

Формат: MKV
Качество: BDRemux 1080p
Видео: VC-1 / 30695 kbps / 1920x1080 / 23.976 fps

#1. Russian Dolby Digital, 2.0, 384 kbps - Гаврилов
#2. Russian Dolby Digital, 2.0, 384 kbps - Марченко
#3. English DTS-HD MA, 5.1, 3722 kbps - Оригинал
Format : Matroska
Format version : Version 2
File size : 25.3 GiB
Duration : 1 h 40 min
Overall bit rate : 36.0 Mb/s
Movie name : The Last Starfighter (1984) BDRemux
Encoded date : UTC 2017-12-10 10:58:58
Writing application : mkvmerge v4.9.1 ('Ich will') сборка от Jul 11 2011 23:53:15
Writing library : libebml v1.2.1 + libmatroska v1.1.1

Video
ID : 1
Format : VC-1
Format profile : Advanced@L3
Codec ID : V_MS/VFW/FOURCC / WVC1
Codec ID/Hint : Microsoft
Duration : 1 h 40 min
Width : 1 920 pixels
Height : 1 080 pixels
Display aspect ratio : 16:9
Frame rate mode : Constant
Frame rate : 23.976 (24000/1001) FPS
Color space : YUV
Chroma subsampling : 4:2:0
Bit depth : 8 bits
Scan type : Progressive
Compression mode : Lossy
Title : Последний звёздный боец
Language : English
Default : Yes
Forced : No

Audio #1
ID : 2
Format : AC-3
Format/Info : Audio Coding 3
Format settings, Endianness : Big
Codec ID : A_AC3
Duration : 1 h 40 min
Bit rate mode : Constant
Bit rate : 384 kb/s
Channel(s) : 2 channels
Channel positions : Front: L R
Sampling rate : 48.0 kHz
Frame rate : 31.250 FPS (1536 SPF)
Bit depth : 16 bits
Compression mode : Lossy
Stream size : 277 MiB (1%)
Title : Гаврилов
Language : Russian
Service kind : Complete Main
Default : Yes
Forced : No

Audio #2
ID : 3
Format : AC-3
Format/Info : Audio Coding 3
Format settings, Endianness : Big
Codec ID : A_AC3
Duration : 1 h 40 min
Bit rate mode : Constant
Bit rate : 384 kb/s
Channel(s) : 2 channels
Channel positions : Front: L R
Sampling rate : 48.0 kHz
Frame rate : 31.250 FPS (1536 SPF)
Bit depth : 16 bits
Compression mode : Lossy
Stream size : 277 MiB (1%)
Title : Марченко
Language : Russian
Service kind : Complete Main
Default : No
Forced : No

Audio #3
ID : 4
Format : DTS
Format/Info : Digital Theater Systems
Format profile : MA / Core
Mode : 16
Format settings, Endianness : Big
Codec ID : A_DTS
Duration : 1 h 40 min
Bit rate mode : Variable / Constant
Bit rate : Unknown / 1 509 kb/s
Channel(s) : 6 channels
Channel positions : Front: L C R, Side: L R, LFE
Sampling rate : 48.0 kHz
Frame rate : 93.750 FPS (512 SPF)
Bit depth : 24 bits
Compression mode : Lossless / Lossy
Title : Оригинал
Language : English
Default : No
Forced : No

Text #1
ID : 5
Format : UTF-8
Codec ID : S_TEXT/UTF8
Codec ID/Info : UTF-8 Plain Text
Language : Russian
Default : No
Forced : No

Text #2
ID : 6
Format : UTF-8
Codec ID : S_TEXT/UTF8
Codec ID/Info : UTF-8 Plain Text
Language : English
Default : No
Forced : No

Menu
00:00:00.000 : en:Main Titles
00:02:43.330 : en:A Sparklin' Day
00:08:12.200 : en:Sad Starfighter
00:12:31.334 : en:Record Breaker
00:18:23.269 : en:Recruited
00:22:31.559 : en:Stardrive
00:26:49.149 : en:What's Goin' On?
00:30:41.131 : en:The Ambassador
00:33:30.717 : en:Highly Irregular
00:38:23.927 : en:The Frontier
00:43:10.880 : en:Back on Earth
00:52:59.176 : en:Back to the Future
00:58:19.329 : en:Last Starfighter
01:09:18.863 : en:Hide and Seek
01:24:00.577 : en:The Command Ship
01:26:00.947 : en:An Old Friend
01:28:57.165 : en:About Alex
01:37:06.946 : en:End Titles



Скачать Последний.звёздный.боец.The.Last.Starfighter.(Ник.Касл).[1984.фантастика.боевик.приключения.BDRemux].[1080p].[AVO]x2+[Оригинал.Eng]+[Sub.Rus.Eng]x2.torrent без регистрации
Золото ЗОЛОТАЯ РАЗДАЧА! СКАЧАННОЕ НЕ ЗАСЧИТЫВАЕТСЯ! Золото
Дата: Зарегистрирован   [ Тип: внутренний ] Как тут cкачать?
MAGNET ссылка
MAGNET ссылка


Скачать .torrent

128 KB

Статус: проверено DHT
Скачан: торрент - 30 раз, раздача полностью - 2 раз
Размер: 25,3 GB
Оценка:  - (Голосов: 0)
Поблагодарили: 2
Поделиться ссылкой на эту раздачу с друзьями:
В контактеFacebookОдноклассникиTwitterLivejournalМой МирLiveinternet
 

 
Показать сообщения:    


Вы не можете начинать темы
Вы не можете отвечать на сообщения
Вы не можете редактировать свои сообщения
Вы не можете удалять свои сообщения
Вы не можете голосовать в опросах
Вы не можете прикреплять файлы к сообщениям
Вы можете скачивать файлы