Loading...
Error

Скачать В погоне за Папи / Chasing Papi (Линда Мендоса) [2003, мелодрама, комедия, WEB-DLRip] [MVO] торрент без регистрации

Статистика раздачи
Размер:  1,46 GB   |    Скачан:  19 раз
Сидов:  1  [  0 KB/s  ]  
 
 
 
Автор Сообщение

Marsianka

[] 

Информация о фильме
Название: В погоне за Папи
Оригинальное название: Chasing Papi
Год выхода: 2003
Жанр: мелодрама, комедия
Режиссер: Линда Мендоса
В ролях: Роселин Санчес, София Вергара, Джэси Веласкес, Эдуардо Верастеги, Лиза Видал, Фредди Родригес, Д.Л. Хьюли, Мария Кончита Алонсо, Вальтер Меркадо, Карлос Понсе

О фильме:
Красавец Томас «Папи» Фуэнтес — сотрудник рекламного агентство — влюблен сильно и по-настоящему… в трех шикарных девушек, проживающих в трех разных городах: жеманная Патрисия — из Нью-Йорка, прекрасная Лорена — из Чикаго и сексапильная Сиси — из Майами. И вот, все три красотки приезжают в Лос-Анджелес, чтобы сделать сюрприз Папи...

Семпл

Страна: США
Студия: Fox 2000 Pictures, Robert Simonds Productions, Spirit Dance Entertainment
Продолжительность: 01:20:18
Перевод: Профессиональный многоголосный

Файл
Кодек: XviD
Качество: WEB-DLRip
Видео: 720x400 (1.80:1), 23.976 fps, XviD build 73 ~2145 kbps avg, 0.31 bit/pixel
Звук: 48 kHz, AC3, 6 ch, ~448 kbps
Субтитры: Отсутствуют
General
Complete name : D:Изготовление рипаChasing.Papi.2003.WEB-DLRip by_ExKinoRay.avi
Format : AVI
Format/Info : Audio Video Interleave
File size : 1.46 GiB
Duration : 1 h 20 min
Overall bit rate : 2 603 kb/s
Writing application : VirtualDubMod 1.5.10.3 | www.virtualdub-fr.org || (build 2550/release)
Writing library : VirtualDubMod build 2550/release

Video
ID : 0
Format : MPEG-4 Visual
Format profile : Advanced Simple@L5
Format settings : BVOP1 / Custom Matrix
Format settings, BVOP : 1
Format settings, QPel : No
Format settings, GMC : No warppoints
Format settings, Matrix : Custom
Codec ID : XVID
Codec ID/Hint : XviD
Duration : 1 h 20 min
Bit rate : 2 146 kb/s
Width : 720 pixels
Height : 400 pixels
Display aspect ratio : 16:9
Frame rate : 23.976 (24000/1001) FPS
Original frame rate : 23.976 (23976/1000) FPS
Color space : YUV
Chroma subsampling : 4:2:0
Bit depth : 8 bits
Scan type : Progressive
Compression mode : Lossy
Bits/(Pixel*Frame) : 0.311
Stream size : 1.20 GiB (82%)
Writing library : XviD 73

Audio
ID : 1
Format : AC-3
Format/Info : Audio Coding 3
Format settings, Endianness : Big
Codec ID : 2000
Duration : 1 h 20 min
Bit rate mode : Constant
Bit rate : 448 kb/s
Channel(s) : 6 channels
Channel positions : Front: L C R, Side: L R, LFE
Sampling rate : 48.0 kHz
Frame rate : 31.250 FPS (1536 SPF)
Bit depth : 16 bits
Compression mode : Lossy
Stream size : 257 MiB (17%)
Alignment : Split accross interleaves
Interleave, duration : 42 ms (1.00 video frame)
Interleave, preload duratio : 500 ms
Service kind : Complete Main
Релиз от:



Скачать В.погоне.за.Папи.Chasing.Papi.(Линда.Мендоса).[2003.мелодрама.комедия.WEB-DLRip].[MVO].torrent без регистрации
Золото ЗОЛОТАЯ РАЗДАЧА! СКАЧАННОЕ НЕ ЗАСЧИТЫВАЕТСЯ! Золото
Дата: Зарегистрирован   [ Тип: внутренний ] Как тут cкачать?
MAGNET ссылка
MAGNET ссылка


Скачать .torrent

16 KB

Статус: проверено DHT
Скачан: торрент - 19 раз, раздача полностью - 4 раз
Размер: 1,46 GB
Оценка:  - (Голосов: 0)
Поблагодарили: 0
Поделиться ссылкой на эту раздачу с друзьями:
В контактеFacebookОдноклассникиTwitterLivejournalМой МирLiveinternet
 

 
Показать сообщения:    


Вы не можете начинать темы
Вы не можете отвечать на сообщения
Вы не можете редактировать свои сообщения
Вы не можете удалять свои сообщения
Вы не можете голосовать в опросах
Вы не можете прикреплять файлы к сообщениям
Вы можете скачивать файлы