Loading...
Error

Скачать Подранки (Николай Губенко) [1976, драма, DVDRip-AVC] торрент без регистрации

Статистика раздачи
Размер:  1,37 GB   |    Скачан:  20 раз
Сидов:  1  [  0 KB/s  ]  
 
 
 
Автор Сообщение

Marsianka

[] 

Подранки


Год выпуска: 1976
Жанр: драма
Режиссер: Николай Губенко
В ролях: Юозас Будрайтис, Георгий Бурков, Александр Калягин, Алеша Черствов,
Жанна Болотова, Ролан Быков, Бухути Закариадзе, Евгений Евстигнеев, Николай Губенко,
Наталья Гундарева, Ольга Строгова, Зоя Евсеева, Даниил Нетребин,
Людмила Шагалова, Валентина Березуцкая, Николай Волков, Дмитрий Бессонов

О фильме: Один из лучших фильмов советского кино - трагедия беспризорного послевоенного детства.
Это рассказ писателя средних лет, разыскивающего своих братьев.
Всех их в детские годы разметала по жизни война. Один был усыновлён состоятельными и благополучными людьми и сам вырос в состоятельного благополучного архитектора.
Другой стал вором-рецидивистом. Сестра, после гибели на фронте отца и самоубийства матери,
до четырнадцати лет заботилась о самом младшем в семье ребёнке - о рассказчике.
Они вместе голодали и воровали пропитание. Потом она умерла.
А рассказчику повезло - он попал в подмосковный детский дом, расположенный в старинном имении.
И там, в окружении искалеченных войной детей и не менее искалеченных войной педагогов, формировался как личность.
Встречаясь с братьями - по существу, чужими людьми - герой всё сильнее ощущает одиночество, а зритель понимает, что именно это одиночество и есть главная трагедия человека и человечества.

Выпущено: СССР
Продолжительность: 01:28:09
Перевод: не требуется



Кодек: х264
Качество: DVDRip-AVC
Видео: MPEG-4 AVC, 720x556@768x556, 25 fps, 2000 Кбит/с
Звук: AC3, 2 ch, 224 Кбит/сек

x264 [info]: frame I:669 Avg QP:15.11 size: 80584
x264 [info]: frame P:30095 Avg QP:18.93 size: 25760
x264 [info]: frame B:101476 Avg QP:20.70 size: 4859

Общее
Уникальный идентификатор : 170638984509653033472528958513240568725 (0x805FDF7C949965A0904231E4629F7395)
Полное имя : E:Мои рипыПодранки 1976_DVD-AVC_KORSAR.mkv
Формат : Matroska
Версия формата : Version 2
Размер файла : 1,37 Гбайт
Продолжительность : 1 ч. 28 м.
Общий поток : 2226 Кбит/сек
Дата кодирования : UTC 2017-12-09 17:50:03
Программа кодирования : mkvmerge v5.8.0 ('No Sleep / Pillow') built on Sep 2 2012 15:37:04
Библиотека кодирования : libebml v1.2.3 + libmatroska v1.3.0

Видео
Идентификатор : 1
Формат : AVC
Формат/Информация : Advanced Video Codec
Профиль формата : High@L4.1
Настройки формата : CABAC / 15 Ref Frames
Параметр CABAC формата : Да
Параметр RefFrames формата : 15 кадров
Идентификатор кодека : V_MPEG4/ISO/AVC
Продолжительность : 1 ч. 28 м.
Битрейт : 2000 Кбит/сек
Ширина : 720 пикселей
Высота : 556 пикселей
Соотношение сторон : 1,381
Режим частоты кадров : Постоянный
Частота кадров : 25,000 кадров/сек
Цветовое пространство : YUV
Субдискретизация насыщенности : 4:2:0
Битовая глубина : 8 бит
Тип развёртки : Прогрессивная
Бит/(Пиксели*Кадры) : 0.200
Размер потока : 1,21 Гбайт (88%)
Библиотека кодирования : x264 core 152 r2851kMod ba24899
Настройки программы : cabac=1 / ref=15 / deblock=1:-2:-2 / analyse=0x3:0x133 / me=umh / subme=11 / psy=1 / fade_compensate=0.00 / psy_rd=1.05:0.10 / mixed_ref=1 / me_range=48 / chroma_me=1 / trellis=2 / 8x8dct=1 / cqm=0 / deadzone=21,11 / fast_pskip=0 / chroma_qp_offset=-3 / threads=12 / lookahead_threads=3 / sliced_threads=0 / nr=0 / decimate=0 / interlaced=0 / bluray_compat=0 / constrained_intra=0 / bframes=14 / b_pyramid=2 / b_adapt=2 / b_bias=0 / direct=3 / weightb=1 / open_gop=0 / weightp=2 / keyint=250 / keyint_min=25 / scenecut=40 / intra_refresh=0 / rc_lookahead=40 / rc=2pass / mbtree=0 / bitrate=2000 / ratetol=1.0 / qcomp=0.60 / qpmin=0 / qpmax=39 / qpstep=4 / cplxblur=20.0 / qblur=0.5 / vbv_maxrate=50000 / vbv_bufsize=62500 / nal_hrd=none / filler=0 / ip_ratio=1.40 / pb_ratio=1.30 / aq=1:1.00
Язык : English
Default : Да
Forced : Нет
Цветовой диапазон : Limited
Основные цвета : BT.601 PAL
Характеристики трансфера : BT.470 System B, BT.470 System G
Коэффициенты матрицы : BT.470 System B, BT.470 System G

Аудио
Идентификатор : 2
Формат : AC-3
Формат/Информация : Audio Coding 3
Параметр Endianness формата : Big
Идентификатор кодека : A_AC3
Продолжительность : 1 ч. 28 м.
Вид битрейта : Постоянный
Битрейт : 224 Кбит/сек
Каналы : 2 канала
Расположение каналов : Front: L R
Частота : 48,0 КГц
Частота кадров : 31,250 кадров/сек (1536 SPF)
Битовая глубина : 16 бит
Метод сжатия : С потерями
Размер потока : 141 Мбайт (10%)
Default : Да
Forced : Нет



Скачать Подранки.(Николай.Губенко).[1976.драма.DVDRip-AVC].torrent без регистрации
Золото ЗОЛОТАЯ РАЗДАЧА! СКАЧАННОЕ НЕ ЗАСЧИТЫВАЕТСЯ! Золото
Дата: Зарегистрирован   [ Тип: внутренний ] Как тут cкачать?
MAGNET ссылка
MAGNET ссылка


Скачать .torrent

15 KB

Статус: проверено DHT
Скачан: торрент - 20 раз, раздача полностью - 5 раз
Размер: 1,37 GB
Оценка:  5 (Голосов: 1)
Поблагодарили: 1
Поделиться ссылкой на эту раздачу с друзьями:
В контактеFacebookОдноклассникиTwitterLivejournalМой МирLiveinternet
 

 
Показать сообщения:    


Вы не можете начинать темы
Вы не можете отвечать на сообщения
Вы не можете редактировать свои сообщения
Вы не можете удалять свои сообщения
Вы не можете голосовать в опросах
Вы не можете прикреплять файлы к сообщениям
Вы можете скачивать файлы