Loading...
Error

Скачать Демон внутри / The Autopsy Of Jane Doe (Андре Овредал) [2016, ужасы, BDRip] [1080p] [MVO (лицензия iTunes)]+[Eng]+[Sub Rus, Eng] торрент без регистрации

Статистика раздачи
Размер:  10,12 GB   |    Скачан:  145 раз
Сидов:  1  [  0 KB/s  ]  
 
 
 
Автор Сообщение

МихаНЕзатор

[] 

Информация о фильме
Название: Демон внутри
Оригинальное название: The Autopsy of Jane Doe
Год выхода: 2016
Жанр: Ужасы
Режиссер: Андре Овредал

В ролях: Эмиль Хирш, Брайан Кокс, Офелия Ловибонд, Майкл МакЭлхаттон, Олуэн Катрин Келли, Паркер Сойерс, Джейн Перри, Ив О’Хара

О фильме: Тилдены. Морг и крематорий. Вот уже третье поколение Тилдены исправно выполняют свою работу. "Если взялись за дело, то выполняем его до конца!" Именно так звучит девиз этой небольшой семейной фирмы. Старший Тилден помогает полиции раскрывать преступления, используя свои обширные знания и опыт. Однажды, давний друг Тильманов, инспектор Берг, привозит в морг тело девушки, личность которой невозможно установить. Так же он просит провести вскрытие до утра следующего дня. Отец с сыном принимаются за работу...



Страна: Великобритания
Студия: 42, IM Global, Impostor Pictures
Продолжительность: 01:26:22
Перевод: Профессиональный многоголосый | Лицензия

Файл
Качество: BDRip 1080p
Видео: MPEG-4 AVC, 1920x800, 14.0 Mbit/s, 23.976 fps
Звук:
Аудио #01: 48 kHz, DTS, 5.1, 1510 Kbps | Лицензия |RUS
Аудио #02: 48 kHz, AC3, 5.1, 640 Kbps | Лицензия |RUS
Аудио #03: 48 kHz, AC3, 5.1, 640 kbps | Оригинал |ENG
Субтитры: Русские, английские

АНОНСЫ ПОПУЛЯРНЫХ РАЗДАЧ


Торрент обновлён, улучшен видеоряд и звук!
General
Unique ID : 192297495778450261493460033083182658067 (0x90AB268976DFBD9DB50C45B602BBB213)
Complete name : F:VideoThe.Autopsy.of.Jane.Doe.2016.BDRip.1080p.ExKInoRay.mkv
Format : Matroska
Format version : Version 4 / Version 2
File size : 9.58 GiB
Duration : 1 h 26 min
Overall bit rate : 15.9 Mb/s
Encoded date : UTC 2017-04-18 09:34:27
Writing application : mkvmerge v10.0.0 ('To Drown In You') 64bit
Writing library : libebml v1.3.4 + libmatroska v1.4.5

Video
ID : 1
Format : AVC
Format/Info : Advanced Video Codec
Format profile : High@L4.1
Format settings, CABAC : Yes
Format settings, ReFrames : 5 frames
Codec ID : V_MPEG4/ISO/AVC
Duration : 1 h 26 min
Bit rate : 14.0 Mb/s
Width : 1 920 pixels
Height : 800 pixels
Display aspect ratio : 2.40:1
Frame rate mode : Constant
Frame rate : 23.976 (24000/1001) FPS
Color space : YUV
Chroma subsampling : 4:2:0
Bit depth : 8 bits
Scan type : Progressive
Bits/(Pixel*Frame) : 0.380
Stream size : 8.44 GiB (88%)
Writing library : x264 core 142 r2431+42 c69a006 tMod [8-bit@all X86_64]
Encoding settings : cabac=1 / ref=5 / deblock=1:-3:-3 / analyse=0x3:0x133 / me=umh / subme=11 / psy=1 / fade_compensate=0.00 / psy_rd=1.05:1.05 / mixed_ref=1 / me_range=48 / chroma_me=1 / trellis=2 / 8x8dct=1 / cqm=0 / deadzone=21,11 / fast_pskip=0 / chroma_qp_offset=-4 / threads=16 / lookahead_threads=2 / sliced_threads=0 / nr=0 / decimate=0 / interlaced=0 / bluray_compat=0 / constrained_intra=0 / fgo=0 / bframes=8 / b_pyramid=2 / b_adapt=2 / b_bias=0 / direct=3 / weightb=1 / open_gop=0 / weightp=2 / keyint=240 / keyint_min=23 / scenecut=40 / intra_refresh=0 / rc_lookahead=150 / rc=2pass / mbtree=0 / bitrate=14000 / ratetol=1.0 / qcomp=0.80 / qpmin=0:0:0 / qpmax=69:69:69 / qpstep=4 / cplxblur=20.0 / qblur=0.5 / vbv_maxrate=62500 / vbv_bufsize=78125 / nal_hrd=none / filler=0 / ip_ratio=1.30 / pb_ratio=1.20 / aq=2:0.65 / aq-sensitivity=10.00 / aq-factor=1.00:1.00:1.00 / aq2=0 / aq3=0
Language : English
Default : Yes
Forced : No
Color range : Limited
Color primaries : BT.709
Transfer characteristics : BT.709
Matrix coefficients : BT.709

Audio #1
ID : 2
Format : AC-3
Format/Info : Audio Coding 3
Format settings, Endianness : Big
Codec ID : A_AC3
Duration : 1 h 26 min
Bit rate mode : Constant
Bit rate : 384 kb/s
Channel(s) : 6 channels
Channel positions : Front: L C R, Side: L R, LFE
Sampling rate : 48.0 kHz
Frame rate : 31.250 FPS (1536 spf)
Bit depth : 16 bits
Compression mode : Lossy
Stream size : 237 MiB (2%)
Title : iTunes
Language : Russian
Service kind : Complete Main
Default : Yes
Forced : No

Audio #2
ID : 3
Format : DTS
Format/Info : Digital Theater Systems
Mode : 16
Format settings, Endianness : Big
Codec ID : A_DTS
Duration : 1 h 26 min
Bit rate mode : Constant
Bit rate : 1 509 kb/s
Channel(s) : 6 channels
Channel positions : Front: L C R, Side: L R, LFE
Sampling rate : 48.0 kHz
Frame rate : 93.750 FPS (512 spf)
Bit depth : 16 bits
Compression mode : Lossy
Stream size : 932 MiB (10%)
Title : Original
Language : English
Default : No
Forced : No

Text #1
ID : 4
Format : UTF-8
Codec ID : S_TEXT/UTF8
Codec ID/Info : UTF-8 Plain Text
Duration : 1 h 19 min
Bit rate : 46 b/s
Count of elements : 702
Stream size : 27.2 KiB (0%)
Title : Full
Language : Russian
Default : No
Forced : No

Text #2
ID : 5
Format : UTF-8
Codec ID : S_TEXT/UTF8
Codec ID/Info : UTF-8 Plain Text
Duration : 1 h 18 min
Bit rate : 32 b/s
Count of elements : 600
Stream size : 18.4 KiB (0%)
Title : Full
Language : English
Default : No
Forced : No

Text #3
ID : 6
Format : UTF-8
Codec ID : S_TEXT/UTF8
Codec ID/Info : UTF-8 Plain Text
Duration : 1 h 22 min
Bit rate : 48 b/s
Count of elements : 925
Stream size : 29.3 KiB (0%)
Title : SDH {Colored)
Language : English
Default : No
Forced : No

Menu
00:00:00.000 : en:00:00:00.000
00:08:38.601 : en:00:08:38.601
00:17:04.607 : en:00:17:04.607
00:26:37.971 : en:00:26:37.971
00:36:47.706 : en:00:36:47.706
00:45:33.898 : en:00:45:33.898
00:53:16.819 : en:00:53:16.819
01:00:45.600 : en:01:00:45.600
01:06:12.635 : en:01:06:12.635
01:10:49.746 : en:01:10:49.746
01:16:26.499 : en:01:16:26.499
01:18:22.448 : en:01:18:22.448



Скачать Демон.внутри.The.Autopsy.Of.Jane.Doe.(Андре.Овредал).[2016.ужасы.BDRip].[1080p].[MVO.(лицензия.iTunes)]+[Eng]+[Sub.Rus.Eng].torrent без регистрации
Золото ЗОЛОТАЯ РАЗДАЧА! СКАЧАННОЕ НЕ ЗАСЧИТЫВАЕТСЯ! Золото
Дата: Зарегистрирован   [ Тип: внутренний ] Как тут cкачать?
MAGNET ссылка
MAGNET ссылка


Скачать .torrent

52 KB

Статус: проверено DHT
Скачан: торрент - 145 раз, раздача полностью - 10 раз
Размер: 10,12 GB
Оценка:  5 (Голосов: 2)
Поблагодарили: 7
Поделиться ссылкой на эту раздачу с друзьями:
В контактеFacebookОдноклассникиTwitterLivejournalМой МирLiveinternet
 

 

green-kiev

[] 

Лучший фильм ужасов своего рода.
 
Показать сообщения:    


Вы не можете начинать темы
Вы не можете отвечать на сообщения
Вы не можете редактировать свои сообщения
Вы не можете удалять свои сообщения
Вы не можете голосовать в опросах
Вы не можете прикреплять файлы к сообщениям
Вы можете скачивать файлы