Loading...
Error

Скачать Яма / The Hole (Ник Хэмм) [2001, триллер, драма, детектив, экранизация, DVDRemux] [MVO]+[DVO]+[Оригинал Eng]+[Sub Rus, Eng]x2 торрент без регистрации

Статистика раздачи
Размер:  4,28 GB   |    Скачан:  26 раз
Сидов:  1  [  0 KB/s  ]  
 
 
 
Автор Сообщение

Marsianka

[] 


Информация о фильме
Название: Яма
Оригинальное название: The Hole
Год выхода: 2001
Жанр: триллер, драма, детектив, экранизация
Режиссер: Ник Хэмм

В ролях:
Тора Бёрч — Лиз Дан, Десмонд Харрингтон — Майк Стил, Кира Найтли — Фрэнки, Лоуренс Фокс — Джефф Бингхэм, Эмма Гриффитс Малин — Дейзи, Дэниэл Броклбэнк — Мартин, Эмбет Дэвидц — доктор Филиппа Хорвуд, Стивен Вэддингтон — детектив Том Ховард, Анастасия Хилл — судмедэксперт Джиллиан.

О фильме:
Четверо студентов престижной английской школы решили устроить особенную вечеринку и выбрали для этого бункер времен войны. Бросив вызов родителям, школе, обыденной жизни и самим себе, они спускаются в зловещие катакомбы, чтобы подвергнуть свой разум, свои чувства шокирующим приключениям.



Страна: Великобритания
Студия: Canal+ [fr], Cowboy Films, Film Council, Granada Film Productions, Impact Pictures, Pathé Pictures International
Продолжительность: 01:38:04
Перевод: Профессиональный многоголосый, Профессиональный двухголосый, Оригинал

Файл
Кодек: MPEG2
Качество: DVDRemux
Видео: 720x576 @ 1024x576 (16:9), 25.000 fps, 5136 kbps

Аудио #1: AC3, 384 Kbps, 48.0 KHz, 6 ch (Rus) Профессиональный многоголосый, CP Digital
Аудио #2: AC3, 224 Kbps, 48.0 KHz, 6 ch (Ukr) Профессиональный двухголосый, 1+1
Аудио #3: AC3, 384 Kbps, 48.0 KHz, 6 ch (Eng) Оригинал
Субтитры: Русские, Английские
Формат : Matroska
Версия формата : Version 2
Размер файла : 4,28 Гбайт
Продолжительность : 1 ч. 38 м.
Режим общего битрейта : Переменный
Общий поток : 6252 Кбит/сек
Дата кодирования : UTC 2016-02-12 15:34:53
Программа кодирования : mkvmerge v5.4.0 ('Piper') built on Mar 10 2012 13:34:39
Библиотека кодирования : libebml v1.2.3 + libmatroska v1.3.0

Видео
Идентификатор : 1
Формат : MPEG Video
Версия формата : Version 2
Профиль формата : Main@Main
Параметр BVOP формата : Да
Параметр матрицы формата : Выборочная
Параметр GOP формата : M=3, N=12
Format_Settings_PictureStructure : Frame
Идентификатор кодека : V_MPEG2
Идентификатор кодека/Информация : MPEG 1 or 2 Video
Продолжительность : 1 ч. 38 м.
Вид битрейта : Переменный
Битрейт : 5136 Кбит/сек
Максимальный битрейт : 9600 Кбит/сек
Ширина : 720 пикселей
Высота : 576 пикселей
Соотношение сторон : 16:9
Режим частоты кадров : Постоянный
Частота кадров : 25,000 кадров/сек
Стандарт вещания : PAL
Цветовое пространство : YUV
Субдискретизация насыщенности : 4:2:0
Битовая глубина : 8 бит
Тип развёртки : Чересстрочная
Порядок развёртки : Верхнее поле первое
Метод сжатия : С потерями
Бит/(Пиксели*Кадры) : 0.495
Временной код первого кадра : 10:00:00:00
Оригинал временного кода : Group of pictures header
Размер потока : 3,52 Гбайт (82%)
Заголовок : The Hole / Яма (2001)
Язык : English
Default : Да
Forced : Нет

Аудио #1
Идентификатор : 2
Формат : AC-3
Формат/Информация : Audio Coding 3
Расширение режима : CM (complete main)
Параметр Endianness формата : Big
Идентификатор кодека : A_AC3
Продолжительность : 1 ч. 38 м.
Вид битрейта : Постоянный
Битрейт : 384 Кбит/сек
Каналы : 6 каналов
Расположение каналов : Front: L C R, Side: L R, LFE
Частота : 48,0 КГц
Битовая глубина : 16 бит
Метод сжатия : С потерями
Размер потока : 269 Мбайт (6%)
Заголовок : MVO (Russian) CP Digital
Язык : Russian
Default : Да
Forced : Нет

Аудио #2
Идентификатор : 3
Формат : AC-3
Формат/Информация : Audio Coding 3
Расширение режима : CM (complete main)
Параметр Endianness формата : Big
Идентификатор кодека : A_AC3
Продолжительность : 1 ч. 38 м.
Вид битрейта : Постоянный
Битрейт : 224 Кбит/сек
Каналы : 6 каналов
Расположение каналов : Front: L C R, Side: L R, LFE
Частота : 48,0 КГц
Битовая глубина : 16 бит
Метод сжатия : С потерями
Размер потока : 157 Мбайт (4%)
Заголовок : DVO (Ukrainian) 1+1
Язык : Ukrainian
Default : Нет
Forced : Нет

Аудио #3
Идентификатор : 4
Формат : AC-3
Формат/Информация : Audio Coding 3
Расширение режима : CM (complete main)
Параметр Endianness формата : Big
Идентификатор кодека : A_AC3
Продолжительность : 1 ч. 38 м.
Вид битрейта : Постоянный
Битрейт : 384 Кбит/сек
Каналы : 6 каналов
Расположение каналов : Front: L C R, Side: L R, LFE
Частота : 48,0 КГц
Битовая глубина : 16 бит
Метод сжатия : С потерями
Размер потока : 269 Мбайт (6%)
Заголовок : Original (English)
Язык : English
Default : Нет
Forced : Нет

Текст #1
Идентификатор : 5
Формат : UTF-8
Идентификатор кодека : S_TEXT/UTF8
Идентификатор кодека/Информация : UTF-8 Plain Text
Заголовок : Rus
Язык : Russian
Default : Нет
Forced : Нет

Текст #2
Идентификатор : 6
Формат : UTF-8
Идентификатор кодека : S_TEXT/UTF8
Идентификатор кодека/Информация : UTF-8 Plain Text
Заголовок : Eng
Язык : English
Default : Нет
Forced : Нет

Меню
00:00:00.080 : en:Chapter 01
00:04:35.120 : en:Chapter 02
00:11:27.920 : en:Chapter 03
00:16:10.160 : en:Chapter 04
00:25:25.040 : en:Chapter 05
00:30:44.240 : en:Chapter 06
00:35:46.640 : en:Chapter 07
00:39:37.520 : en:Chapter 08
00:48:23.600 : en:Chapter 09
00:55:38.480 : en:Chapter 10
01:00:52.880 : en:Chapter 11
01:06:38.000 : en:Chapter 12
01:14:16.400 : en:Chapter 13
01:19:48.080 : en:Chapter 14
01:24:03.440 : en:Chapter 15
01:30:02.960 : en:Chapter 16



Скачать Яма.The.Hole.(Ник.Хэмм).[2001.триллер.драма.детектив.экранизация.DVDRemux].[MVO]+[DVO]+[Оригинал.Eng]+[Sub.Rus.Eng]x2.torrent без регистрации
Золото ЗОЛОТАЯ РАЗДАЧА! СКАЧАННОЕ НЕ ЗАСЧИТЫВАЕТСЯ! Золото
Дата: Зарегистрирован   [ Тип: внутренний ] Как тут cкачать?
MAGNET ссылка
MAGNET ссылка


Скачать .torrent

12 KB

Статус: проверено DHT
Скачан: торрент - 26 раз, раздача полностью - 4 раз
Размер: 4,28 GB
Оценка:  - (Голосов: 0)
Поблагодарили: 0
Поделиться ссылкой на эту раздачу с друзьями:
В контактеFacebookОдноклассникиTwitterLivejournalМой МирLiveinternet
 

 
Показать сообщения:    


Вы не можете начинать темы
Вы не можете отвечать на сообщения
Вы не можете редактировать свои сообщения
Вы не можете удалять свои сообщения
Вы не можете голосовать в опросах
Вы не можете прикреплять файлы к сообщениям
Вы можете скачивать файлы