Loading...
Error

Скачать Плоть + кровь / Flesh + Blood (Пол Верховен) [1985, драма, приключения, исторический, BDRip] [720p] [MVO]x3+[AVO]x3+[Оригинал Eng]+[Sub Rus, Eng]x2 торрент без регистрации

Статистика раздачи
Размер:  14,62 GB   |    Скачан:  12 раз
Сидов:  1  [  0 KB/s  ]  
 
 
 
Автор Сообщение

Marsianka

[] 

Плоть + кровь / Flesh+Blood


Год выпуска: 1985
Страна: Испания, США, Нидерланды
Студия: Impala, Riverside Pictures
Жанр: драма, приключения, исторический
Продолжительность: 02:07:50

Режиссер: Пол Верховен
В ролях: Рутгер Хауэр, Дженнифер Джейсон Ли, Том Бёрлинсон, Джек Томпсон, Фернандо Ильбек, Сьюзен Тиррел, Рональд Лейси, Брайон Джеймс, Джон Деннис Джонстон, Симон Андреу

Описание: 1501 год. Вся Европа охвачена кровопролитными войнами. В городах свирепствует чума. Отряд ландскнехтов, руководимый бывшим наемником Мартином, захватывает в заложники невесту сына барона Арнольфини, когда-то предавшего Мартина. "Солдаты удачи" укрываются в заброшенном после эпидемии чумы замке и вступают в неравную битву с армией барона...
"Верховен отобразил истинные "темные века" без хромированно-лакированной гламурности, там модной сейчас в Голливуде. Вокруг убийства, насилие, секс, грязь, но для героев данного фильма все эти вещи нормальны и обыденны - они не знают другой жизни. И режиссер показывает нам, что мир не изменился с тех пор, как и люди... Очень жесткий реалистичный фильм."



Кодек: H264
Качество: BDRip 720p
Видео: MPEG-4 AVC, 1280x544, 23.976fps, 15.0 Mbps
Перевод: Профессиональный (многоголосый закадровый) Н-Кино
Перевод: Профессиональный (многоголосый закадровый)
Перевод: Профессиональный (многоголосый закадровый), НТВ
Перевод: Авторский (одноголосый закадровый), А. Гаврилов
Перевод: Авторский (одноголосый закадровый), Ю. Сербин
Перевод: Авторский (одноголосый закадровый), А. Попов
Оригинальная аудиодорожка: Английский
Субтитры: Русские, английские
Аудио #01: Русский: Dolby AC3, 48000 Hz, 2ch, 192 kbps - Многоголосый закадровый, Н-Кино
Аудио #02: Русский: Dolby AC3, 48000 Hz, 2ch, 192 kbps - Многоголосый закадровый
Аудио #03: Русский: Dolby AC3, 48000 Hz, 2ch, 192 kbps - Многоголосый, НТВ
Аудио #04: Русский: Dolby AC3, 48000 Hz, 2ch, 192 kbps - Одноголосый закадровый, А. Гаврилов
Аудио #05: Русский: Dolby AC3, 48000 Hz, 2ch, 192 kbps - Одноголосый закадровый, Ю. Сербин
Аудио #06: Русский: Dolby AC3, 48000 Hz, 2ch, 192 kbps - Одноголосый закадровый, А. Попов
Аудио #07: Английский: Dolby AC3, 48000 Hz, 2ch, 224 kbps
Формат субтитров: Softsub (SRT)
Главы: Есть

x264 [info]: frame I:1053 Avg QP:17.98 size:182271
x264 [info]: frame P:41067 Avg QP:20.67 size:114066
x264 [info]: frame B:141793 Avg QP:22.71 size: 66987

Общее
Уникальный идентификатор : 202380986175524773093395526571137687153 (0x984128FF435C684EBBF764C9D057DE71)
Полное имя : E:Мои рипыПлоть и кровь 1985_BDRip 720p_KORSAR.mkv
Формат : Matroska
Версия формата : Version 2
Размер файла : 14,6 Гбайт
Продолжительность : 2 ч. 7 м.
Общий поток : 16,4 Мбит/сек
Название фильма : Плоть + кровь 1985/ mister.hats
Дата кодирования : UTC 2017-12-10 23:06:43
Программа кодирования : mkvmerge v5.8.0 ('No Sleep / Pillow') built on Sep 2 2012 15:37:04
Библиотека кодирования : libebml v1.2.3 + libmatroska v1.3.0

Видео
Идентификатор : 1
Формат : AVC
Формат/Информация : Advanced Video Codec
Профиль формата : High@L4.1
Настройки формата : CABAC / 12 Ref Frames
Параметр CABAC формата : Да
Параметр RefFrames формата : 12 кадров
Идентификатор кодека : V_MPEG4/ISO/AVC
Продолжительность : 2 ч. 7 м.
Битрейт : 15,0 Мбит/сек
Ширина : 1280 пикселей
Высота : 544 пикселя
Соотношение сторон : 2,35:1
Режим частоты кадров : Постоянный
Частота кадров : 23,976 (24000/1001) кадра/сек
Цветовое пространство : YUV
Субдискретизация насыщенности : 4:2:0
Битовая глубина : 8 бит
Тип развёртки : Прогрессивная
Бит/(Пиксели*Кадры) : 0.898
Размер потока : 13,1 Гбайт (90%)
Библиотека кодирования : x264 core 152 r2851kMod ba24899
Настройки программы : cabac=1 / ref=12 / deblock=1:-2:-2 / analyse=0x3:0x113 / me=umh / subme=11 / psy=1 / fade_compensate=0.00 / psy_rd=1.03:0.05 / mixed_ref=1 / me_range=48 / chroma_me=1 / trellis=2 / 8x8dct=1 / cqm=0 / deadzone=21,11 / fast_pskip=0 / chroma_qp_offset=-3 / threads=12 / lookahead_threads=3 / sliced_threads=0 / nr=0 / decimate=0 / interlaced=0 / bluray_compat=0 / constrained_intra=0 / bframes=10 / b_pyramid=2 / b_adapt=2 / b_bias=0 / direct=3 / weightb=1 / open_gop=0 / weightp=2 / keyint=240 / keyint_min=23 / scenecut=40 / intra_refresh=0 / rc_lookahead=40 / rc=2pass / mbtree=0 / bitrate=15000 / ratetol=1.0 / qcomp=0.60 / qpmin=0 / qpmax=39 / qpstep=4 / cplxblur=20.0 / qblur=0.5 / vbv_maxrate=50000 / vbv_bufsize=62500 / nal_hrd=none / filler=0 / ip_ratio=1.40 / pb_ratio=1.30 / aq=2:1.00
Язык : English
Default : Да
Forced : Нет
Цветовой диапазон : Limited
Основные цвета : BT.709
Характеристики трансфера : BT.709
Коэффициенты матрицы : BT.709

Аудио #1
Идентификатор : 2
Формат : AC-3
Формат/Информация : Audio Coding 3
Параметр Endianness формата : Big
Идентификатор кодека : A_AC3
Продолжительность : 2 ч. 7 м.
Вид битрейта : Постоянный
Битрейт : 192 Кбит/сек
Каналы : 2 канала
Расположение каналов : Front: L R
Частота : 48,0 КГц
Частота кадров : 31,250 кадров/сек (1536 SPF)
Битовая глубина : 16 бит
Метод сжатия : С потерями
Размер потока : 176 Мбайт (1%)
Заголовок : Н кино
Язык : Russian
Default : Да
Forced : Нет

Аудио #2
Идентификатор : 3
Формат : AC-3
Формат/Информация : Audio Coding 3
Параметр Endianness формата : Big
Идентификатор кодека : A_AC3
Продолжительность : 2 ч. 7 м.
Вид битрейта : Постоянный
Битрейт : 192 Кбит/сек
Каналы : 2 канала
Расположение каналов : Front: L R
Частота : 48,0 КГц
Частота кадров : 31,250 кадров/сек (1536 SPF)
Битовая глубина : 16 бит
Метод сжатия : С потерями
Размер потока : 176 Мбайт (1%)
Заголовок : MVO
Язык : Russian
Default : Нет
Forced : Нет

Аудио #3
Идентификатор : 4
Формат : AC-3
Формат/Информация : Audio Coding 3
Параметр Endianness формата : Big
Идентификатор кодека : A_AC3
Продолжительность : 2 ч. 7 м.
Вид битрейта : Постоянный
Битрейт : 192 Кбит/сек
Каналы : 2 канала
Расположение каналов : Front: L R
Частота : 48,0 КГц
Частота кадров : 31,250 кадров/сек (1536 SPF)
Битовая глубина : 16 бит
Метод сжатия : С потерями
Размер потока : 176 Мбайт (1%)
Заголовок : Многоголосый, НТВ
Язык : Russian
Default : Нет
Forced : Нет

Аудио #4
Идентификатор : 5
Формат : AC-3
Формат/Информация : Audio Coding 3
Параметр Endianness формата : Big
Идентификатор кодека : A_AC3
Продолжительность : 2 ч. 7 м.
Вид битрейта : Постоянный
Битрейт : 192 Кбит/сек
Каналы : 2 канала
Расположение каналов : Front: L R
Частота : 48,0 КГц
Частота кадров : 31,250 кадров/сек (1536 SPF)
Битовая глубина : 16 бит
Метод сжатия : С потерями
Размер потока : 176 Мбайт (1%)
Язык : Russian Гаврилов
Default : Нет
Forced : Нет

Аудио #5
Идентификатор : 6
Формат : AC-3
Формат/Информация : Audio Coding 3
Параметр Endianness формата : Big
Идентификатор кодека : A_AC3
Продолжительность : 2 ч. 7 м.
Вид битрейта : Постоянный
Битрейт : 192 Кбит/сек
Каналы : 2 канала
Расположение каналов : Front: L R
Частота : 48,0 КГц
Частота кадров : 31,250 кадров/сек (1536 SPF)
Битовая глубина : 16 бит
Метод сжатия : С потерями
Размер потока : 176 Мбайт (1%)
Язык : Russian Сербин
Default : Нет
Forced : Нет

Аудио #6
Идентификатор : 7
Формат : AC-3
Формат/Информация : Audio Coding 3
Параметр Endianness формата : Big
Идентификатор кодека : A_AC3
Продолжительность : 2 ч. 7 м.
Вид битрейта : Постоянный
Битрейт : 192 Кбит/сек
Каналы : 2 канала
Расположение каналов : Front: L R
Частота : 48,0 КГц
Частота кадров : 31,250 кадров/сек (1536 SPF)
Битовая глубина : 16 бит
Метод сжатия : С потерями
Размер потока : 176 Мбайт (1%)
Язык : Russian Попов
Default : Нет
Forced : Нет

Аудио #7
Идентификатор : 8
Формат : AC-3
Формат/Информация : Audio Coding 3
Параметр Endianness формата : Big
Идентификатор кодека : A_AC3
Продолжительность : 2 ч. 7 м.
Вид битрейта : Постоянный
Битрейт : 224 Кбит/сек
Каналы : 2 канала
Расположение каналов : Front: L R
Частота : 48,0 КГц
Частота кадров : 31,250 кадров/сек (1536 SPF)
Битовая глубина : 16 бит
Метод сжатия : С потерями
Размер потока : 205 Мбайт (1%)
Заголовок : ENG
Язык : Russian
Default : Нет
Forced : Нет

Текст #1
Идентификатор : 9
Формат : UTF-8
Идентификатор кодека : S_TEXT/UTF8
Идентификатор кодека/Информация : UTF-8 Plain Text
Язык : Russian
Default : Нет
Forced : Нет

Текст #2
Идентификатор : 10
Формат : UTF-8
Идентификатор кодека : S_TEXT/UTF8
Идентификатор кодека/Информация : UTF-8 Plain Text
Язык : Russian
Default : Нет
Forced : Нет

Текст #3
Идентификатор : 11
Формат : UTF-8
Идентификатор кодека : S_TEXT/UTF8
Идентификатор кодека/Информация : UTF-8 Plain Text
Язык : English
Default : Нет
Forced : Нет

Меню
00:00:00.000 : en:Chapter 01
00:05:00.508 : en:Chapter 02
00:10:00.266 : en:Chapter 03
00:14:59.899 : en:Chapter 04
00:19:59.615 : en:Chapter 05
00:25:00.415 : en:Chapter 06
00:29:59.756 : en:Chapter 07
00:35:00.389 : en:Chapter 08
00:40:00.272 : en:Chapter 09
00:45:00.447 : en:Chapter 10
00:49:59.955 : en:Chapter 11
00:55:00.380 : en:Chapter 12
00:59:59.721 : en:Chapter 13
01:05:00.354 : en:Chapter 14
01:09:59.987 : en:Chapter 15
01:15:00.078 : en:Chapter 16
01:20:00.545 : en:Chapter 17
01:24:59.928 : en:Chapter 18
01:29:59.936 : en:Chapter 19
01:34:59.819 : en:Chapter 20
01:40:00.244 : en:Chapter 21
01:44:59.876 : en:Chapter 22
01:50:00.176 : en:Chapter 23
01:54:59.976 : en:Chapter 24
01:59:59.650 : en:Chapter 25
02:04:59.700 : en:Chapter 26



Скачать Плоть.+.кровь.Flesh.+.Blood.(Пол.Верховен).[1985.драма.приключения.исторический.BDRip].[720p].[MVO]x3+[AVO]x3+[Оригинал.Eng]+[Sub.Rus.Eng]x2.torrent без регистрации
Золото ЗОЛОТАЯ РАЗДАЧА! СКАЧАННОЕ НЕ ЗАСЧИТЫВАЕТСЯ! Золото
Дата: Зарегистрирован   [ Тип: внутренний ] Как тут cкачать?
MAGNET ссылка
MAGNET ссылка


Скачать .torrent

74 KB

Статус: проверено DHT
Скачан: торрент - 12 раз, раздача полностью - 2 раз
Размер: 14,62 GB
Оценка:  - (Голосов: 0)
Поблагодарили: 0
Поделиться ссылкой на эту раздачу с друзьями:
В контактеFacebookОдноклассникиTwitterLivejournalМой МирLiveinternet
 

 
Показать сообщения:    


Вы не можете начинать темы
Вы не можете отвечать на сообщения
Вы не можете редактировать свои сообщения
Вы не можете удалять свои сообщения
Вы не можете голосовать в опросах
Вы не можете прикреплять файлы к сообщениям
Вы можете скачивать файлы