Loading...
Error

Скачать Александр Невский (Сергей Эйзенштейн, Дмитрий Васильев, Борис Иванов) [1938, боевик, драма, военный, история, биография, BDRip] [720p] торрент без регистрации

Статистика раздачи
Размер:  5,31 GB   |    Скачан:  22 раза
Сидов:  1  [  0 KB/s  ]  
 
 
 
Автор Сообщение

Marsianka

[] 

Александр Невский

Год выхода: 1938
Жанр: боевик, драма, военный, история, биография
Режиссер: Сергей Эйзенштейн, Дмитрий Васильев, Борис Иванов
В ролях: Николай Черкасов, Николай Охлопков, Андрей Абрикосов, Дмитрий Орлов, Николай Арский, Варвара Массалитинова, Валентина Ивашева, Александра Данилова, Владимир Ершов, Сергей Блиннико

Описание: На западные рубежи Руси наступают войска Тевтонского Ордена. Они захватывают Псков, мучают и убивают местных жителей. Рыцари заранее делят ещё не завоеванные русские земли, присваивая себе титулы князей и надеясь на поддержку Папы Римского. Новгородский люд на вече решает собирать дружину и звать на командование ей опытного полководца князя Александра, прозванного Невским. Двое богатырей Гаврила Алексич и Васька Буслаев (реальные личности) сватаются к одной девице, и она решает, что выберет того, кто лучше покажет себя в битве.Войска сходятся к берегам замёрзшего Чудского озера. Перед боем один дружинник рассказывает князю басню о лисице, застрявшей в развилке дерева, куда её заманил заяц. Александр поступает похожим образом: строит свои войска клещами, в то время как 'кабан' тевтонцев наступает прямо по центру. Русичи окружают врага, зажимают в 'тиски' и разбивают его. Бросившиеся в бегство немцы тонут, проламывая тяжелыми доспехами лёд. Предводители агрессоров попадают в плен

Выпущено: СССР
Продолжительность: 01:47:45



Кодек: х264
Качество: BDRip 720p
Видео: MPEG-4 AVC, 986x720, 24 fps, 6444 Кбит/с
Звук: AC3, 2 ch, 448 Кбит/с, AC3, 1 ch, 448 Кбит/с

    x264 [info]: frame I:904 Avg QP:18.50 size:119140
    x264 [info]: frame P:33442 Avg QP:20.17 size: 66933
    x264 [info]: frame B:120814 Avg QP:21.80 size: 23691
    x264 [info]: consecutive B-frames: 1.4% 1.9% 8.1% 24.5% 19.4% 39.0% 2.1% 0.4% 0.3% 0.1% 0.1% 0.0% 0.3% 0.3% 0.5% 0.6% 1.0%
Общее
Уникальный идентификатор : 174871114064900728857714323153376782094 (0x838EF3956972F54E8330E4168CA0270E)
Полное имя : D:Александр Невский_1938-BDRip 720p.mkv
Формат : Matroska
Версия формата : Version 2
Размер файла : 5,31 Гбайт
Продолжительность : 1 ч. 47 м.
Общий поток : 7049 Кбит/сек
Дата кодирования : UTC 2017-06-08 13:28:10
Программа кодирования : mkvmerge v5.8.0 ('No Sleep / Pillow') built on Sep 2 2012 15:37:04
Библиотека кодирования : libebml v1.2.3 + libmatroska v1.3.0

Видео
Идентификатор : 1
Формат : AVC
Формат/Информация : Advanced Video Codec
Профиль формата : High@L4.1
Параметр CABAC формата : Да
Параметр ReFrames формата : 11 кадров
Идентификатор кодека : V_MPEG4/ISO/AVC
Продолжительность : 1 ч. 47 м.
Битрейт : 6013 Кбит/сек
Ширина : 986 пикселей
Высота : 720 пикселей
Соотношение сторон : 4:3
Режим частоты кадров : Постоянный
Частота кадров : 24,000 кадра/сек
Цветовое пространство : YUV
Субдискретизация насыщенности : 4:2:0
Битовая глубина : 8 бит
Тип развёртки : Прогрессивная
Бит/(Пиксели*Кадры) : 0.353
Размер потока : 4,53 Гбайт (85%)
Заголовок : korsar.tv
Библиотека кодирования : x264 core 148 r2744kMod b97ae06
Настройки программы : cabac=1 / ref=11 / deblock=1:-2:-2 / analyse=0x3:0x113 / me=umh / subme=10 / psy=1 / fade_compensate=0.00 / psy_rd=1.05:0.10 / mixed_ref=1 / me_range=36 / chroma_me=1 / trellis=2 / 8x8dct=1 / cqm=0 / deadzone=21,11 / fast_pskip=1 / chroma_qp_offset=-3 / threads=12 / lookahead_threads=3 / sliced_threads=0 / nr=0 / decimate=1 / interlaced=0 / bluray_compat=0 / constrained_intra=0 / bframes=16 / b_pyramid=2 / b_adapt=2 / b_bias=0 / direct=1 / weightb=1 / open_gop=0 / weightp=2 / keyint=250 / keyint_min=24 / scenecut=40 / intra_refresh=0 / rc=crf / mbtree=0 / crf=18.0000 / qcomp=0.63 / qpmin=0 / qpmax=39 / qpstep=4 / ip_ratio=1.40 / pb_ratio=1.30 / aq=2:0.90
Язык : English
Default : Да
Forced : Нет
Цветовой диапазон : Limited
Основные цвета : BT.709
Характеристики трансфера : BT.709
Коэффициенты матрицы : BT.709

Аудио #1
Идентификатор : 2
Формат : AC-3
Формат/Информация : Audio Coding 3
Параметр Endianness формата : Big
Идентификатор кодека : A_AC3
Продолжительность : 1 ч. 47 м.
Вид битрейта : Постоянный
Битрейт : 448 Кбит/сек
Каналы : 2 канала
Расположение каналов : Front: L R
Частота : 48,0 КГц
Частота кадров : 31,250 кадров/сек (1536 spf)
Битовая глубина : 16 бит
Метод сжатия : С потерями
Размер потока : 345 Мбайт (6%)
Язык : Russian
Default : Да
Forced : Нет

Аудио #2
Идентификатор : 3
Формат : AC-3
Формат/Информация : Audio Coding 3
Параметр Endianness формата : Big
Идентификатор кодека : A_AC3
Продолжительность : 1 ч. 47 м.
Вид битрейта : Постоянный
Битрейт : 448 Кбит/сек
Каналы : 1 канал
Расположение каналов : Front: C
Частота : 48,0 КГц
Частота кадров : 31,250 кадров/сек (1536 spf)
Битовая глубина : 16 бит
Метод сжатия : С потерями
Размер потока : 345 Мбайт (6%)
Язык : Russian
Default : Нет
Forced : Нет



Скачать Александр.Невский.(Сергей.Эйзенштейн.Дмитрий.Васильев.Борис.Иванов).[1938.боевик.драма.военный.история.биография.BDRip].[720p].torrent без регистрации
Золото ЗОЛОТАЯ РАЗДАЧА! СКАЧАННОЕ НЕ ЗАСЧИТЫВАЕТСЯ! Золото
Дата: Зарегистрирован   [ Тип: внутренний ] Как тут cкачать?
MAGNET ссылка
MAGNET ссылка


Скачать .torrent

27 KB

Статус: проверено DHT
Скачан: торрент - 22 раз, раздача полностью - 13 раз
Размер: 5,31 GB
Оценка:  - (Голосов: 0)
Поблагодарили: 0
Поделиться ссылкой на эту раздачу с друзьями:
В контактеFacebookОдноклассникиTwitterLivejournalМой МирLiveinternet
 

 
Показать сообщения:    


Вы не можете начинать темы
Вы не можете отвечать на сообщения
Вы не можете редактировать свои сообщения
Вы не можете удалять свои сообщения
Вы не можете голосовать в опросах
Вы не можете прикреплять файлы к сообщениям
Вы можете скачивать файлы