Loading...
Error

Скачать Петля Ориона (Василий Левин) [1980, фантастика, DVDRip-AVC] торрент без регистрации

Статистика раздачи
Размер:  1,49 GB   |    Скачан:  27 раз

Полного источника не было: 26 минут

 
 
 
Автор Сообщение

Marsianka

[] 

Петля Ориона

Выпущено: СССР
Жанр: фантастика
Год выпуска: 1980
Продолжительность: 01:20:28
Перевод: Не требуется

Режиссер: Василий Левин
В ролях: Гиви Тохадзе, Геннадий Шкуратов, Анатолий Азо, Виталий Дорошенко,
Анатолий Матешко, Леонид Бакштаев, Людмила Смородина, Лиа Элиава, Елена Кокалевская

О Фильме: В глубинах космоса обнаружен загадочный сгусток энергии, приближающийся к Земле. Навстречу "Петле Ориона" (так назвали это явление) отправляется экспедиция со смешанным экипажем из людей и киборгов. Достигнув места назначения, они встречают неизвестную инопланетную цивилизацию, от которой узнают, что Земле грозит серьёзная опасность – так называемая "стеклянная болезнь". Инопланетяне пытаются спасти человечество, создав вокруг планеты энергетический барьер (а именно "Петлю Ориона"). Но путь к пониманию двух цивилизаций оказывается тернист...



Кодек: х264
Качество: DVDRip-AVC
Видео: MPEG-4 AVC, 700x572@746x572, 25 fps, 2200 Кбит/с
Аудио 1: Русский (Dolby AC3, 6 ch), 48000 Hz, 448 Кбит/с

x264 [info]: frame I:737 Avg QP:14.69 size: 84004
x264 [info]: frame P:25749 Avg QP:18.52 size: 27391
x264 [info]: frame B:94225 Avg QP:20.20 size: 5950

Общее
Уникальный идентификатор : 204173666868338224357711723184262994226 (0x999A6AFAB055D2F891D4FC5004DBD932)
Полное имя : E:Мои рипыПетля Ориона 1980_DVDRip-AVC_KORSAR.mkv
Формат : Matroska
Версия формата : Version 2
Размер файла : 1,49 Гбайт
Продолжительность : 1 ч. 20 м.
Общий поток : 2650 Кбит/сек
Дата кодирования : UTC 2017-12-12 14:04:07
Программа кодирования : mkvmerge v5.8.0 ('No Sleep / Pillow') built on Sep 2 2012 15:37:04
Библиотека кодирования : libebml v1.2.3 + libmatroska v1.3.0

Видео
Идентификатор : 1
Формат : AVC
Формат/Информация : Advanced Video Codec
Профиль формата : High@L4.1
Настройки формата : CABAC / 15 Ref Frames
Параметр CABAC формата : Да
Параметр RefFrames формата : 15 кадров
Идентификатор кодека : V_MPEG4/ISO/AVC
Продолжительность : 1 ч. 20 м.
Битрейт : 2200 Кбит/сек
Ширина : 700 пикселей
Высота : 572 пикселя
Соотношение сторон : 4:3
Соотношение сторон в оригинале : 4:3
Режим частоты кадров : Постоянный
Частота кадров : 25,000 кадров/сек
Цветовое пространство : YUV
Субдискретизация насыщенности : 4:2:0
Битовая глубина : 8 бит
Тип развёртки : Прогрессивная
Бит/(Пиксели*Кадры) : 0.220
Размер потока : 1,21 Гбайт (81%)
Библиотека кодирования : x264 core 152 r2851kMod ba24899
Настройки программы : cabac=1 / ref=15 / deblock=1:-2:-2 / analyse=0x3:0x133 / me=umh / subme=11 / psy=1 / fade_compensate=0.00 / psy_rd=1.05:0.10 / mixed_ref=1 / me_range=48 / chroma_me=1 / trellis=2 / 8x8dct=1 / cqm=0 / deadzone=21,11 / fast_pskip=0 / chroma_qp_offset=-3 / threads=12 / lookahead_threads=3 / sliced_threads=0 / nr=0 / decimate=0 / interlaced=0 / bluray_compat=0 / constrained_intra=0 / bframes=10 / b_pyramid=2 / b_adapt=2 / b_bias=0 / direct=3 / weightb=1 / open_gop=0 / weightp=2 / keyint=250 / keyint_min=25 / scenecut=40 / intra_refresh=0 / rc_lookahead=40 / rc=2pass / mbtree=0 / bitrate=2200 / ratetol=1.0 / qcomp=0.60 / qpmin=0 / qpmax=39 / qpstep=4 / cplxblur=20.0 / qblur=0.5 / vbv_maxrate=50000 / vbv_bufsize=62500 / nal_hrd=none / filler=0 / ip_ratio=1.40 / pb_ratio=1.30 / aq=1:1.00
Язык : English
Default : Да
Forced : Нет
Цветовой диапазон : Limited
Основные цвета : BT.601 PAL
Характеристики трансфера : BT.470 System B, BT.470 System G
Коэффициенты матрицы : BT.470 System B, BT.470 System G

Аудио
Идентификатор : 2
Формат : AC-3
Формат/Информация : Audio Coding 3
Параметр Endianness формата : Big
Идентификатор кодека : A_AC3
Продолжительность : 1 ч. 20 м.
Вид битрейта : Постоянный
Битрейт : 448 Кбит/сек
Каналы : 6 каналов
Расположение каналов : Front: L C R, Side: L R, LFE
Частота : 48,0 КГц
Частота кадров : 31,250 кадров/сек (1536 SPF)
Битовая глубина : 16 бит
Метод сжатия : С потерями
Размер потока : 258 Мбайт (17%)
Default : Да
Forced : Нет



Скачать Петля.Ориона.(Василий.Левин).[1980.фантастика.DVDRip-AVC].torrent без регистрации
Золото ЗОЛОТАЯ РАЗДАЧА! СКАЧАННОЕ НЕ ЗАСЧИТЫВАЕТСЯ! Золото
Дата: Зарегистрирован   [ Тип: внутренний ] Как тут cкачать?
MAGNET ссылка
MAGNET ссылка


Скачать .torrent

16 KB

Статус: проверено DHT
Скачан: торрент - 27 раз, раздача полностью - 15 раз
Размер: 1,49 GB
Оценка:  - (Голосов: 0)
Поблагодарили: 0
Поделиться ссылкой на эту раздачу с друзьями:
В контактеFacebookОдноклассникиTwitterLivejournalМой МирLiveinternet
 

 
Показать сообщения:    


Вы не можете начинать темы
Вы не можете отвечать на сообщения
Вы не можете редактировать свои сообщения
Вы не можете удалять свои сообщения
Вы не можете голосовать в опросах
Вы не можете прикреплять файлы к сообщениям
Вы можете скачивать файлы