Loading...
Error

Скачать Григорий Сковорода (Иван Кавалеридзе) [1959, биография, SATRip] торрент без регистрации

Статистика раздачи
Размер:  776 MB   |    Скачан:  25 раз

Полного источника не было: 19 минут

 
 
 
Автор Сообщение

Marsianka

[] 

Страна: СССР
Производство: Киевская им. Довженко

Жанр: биография
Год выпуска: 1959
Продолжительность: 01:28:21

Перевод: Не требуется
Cубтитры: нет
Оригинальная аудиодорожка: русский

Режиссер: Иван Кавалеридзе

В ролях:
Александр Гай, Николай Козленко, А. Тюрин, Таисия Литвиненко, Юрий Сарычев, Николай Пишванов, Евгения Веховская, Иван Ужвий, Яков Козлов, Анатолий Моторный, Калерия Землеглядова, Анна Николаева, Алексей Савостьянов, Витольд Янпавлис, Всеволод Быковец, Юрий Лавров, Борис Карлаш-Вербицкий...
Об актёрах подробней

Описание:
О жизни и деятельности Григория Саввича Сковороды (1722 - 1794) - выдающегося украинского философа, поэта, гуманиста, демократа и просветителя XVIII века.
Роскошный дворец императрицы Елизаветы в Санкт-Петербурге. Молодой украинский поэт Сковорода обласкан самой царицей. Но он безразличен к почестям и славе, сердцем он со своим народом, с Украиной. Поэт покидает царский дворец и возвращается на родину.

Исходник: DVB
Качество видео: SATRip
Формат видео: AVI

Видео: 640х480 (4:3), 25 fps, XviD ~ 1090 kbps avg, 0.142 bit/pixel
Аудио: 48 kHz, MP3 2.0, 128 kbps

Раздача от:

Общее
Полное имя : Grigoriy.Skovoroda.1959.SATRip-745_[New-team]_by_AVP_Studio.avi
Формат : AVI
Формат/Информация : Audio Video Interleave
Размер файла : 776 Мбайт
Продолжительность : 1 ч. 28 м.
Общий поток : 1228 Кбит/сек
Программа кодирования : VirtualDubMod 1.5.10.3 | www.virtualdub-fr.org || (build 2550/release)
Библиотека кодирования : VirtualDubMod build 2550/release

Видео
Идентификатор : 0
Формат : MPEG-4 Visual
Профиль формата : Advanced Simple@L5
Настройки формата : BVOP1 / Custom Matrix
Параметр BVOP формата : 1
Параметр QPel формата : Нет
Параметр GMC формата : Без точки перехода
Параметр матрицы формата : Выборочная
Идентификатор кодека : XVID
Идентификатор кодека/Подсказка : XviD
Продолжительность : 1 ч. 28 м.
Битрейт : 1090 Кбит/сек
Ширина : 640 пикселей
Высота : 480 пикселей
Соотношение сторон : 4:3
Частота кадров : 25,000 кадров/сек
Цветовое пространство : YUV
Субдискретизация насыщенности : 4:2:0
Битовая глубина : 8 бит
Тип развёртки : Прогрессивная
Метод сжатия : С потерями
Бит/(Пиксели*Кадры) : 0.142
Размер потока : 689 Мбайт (89%)
Библиотека кодирования : XviD 73

Аудио
Идентификатор : 1
Формат : MPEG Audio
Версия формата : Version 1
Профиль формата : Layer 3
Идентификатор кодека : 55
Идентификатор кодека/Подсказка : MP3
Продолжительность : 1 ч. 28 м.
Вид битрейта : Постоянный
Битрейт : 128 Кбит/сек
Каналы : 2 канала
Частота : 48,0 КГц
Частота кадров : 41,667 кадра/сек (1152 SPF)
Метод сжатия : С потерями
Размер потока : 80,9 Мбайт (10%)
Выравнивание : Соединение по промежуткам
Продолжительность промежутка : 40 мс. (1,00 видеокадр)
Время предзагрузки промежутка : 504 мс.
Библиотека кодирования : LAME3.99r
Настройки программы : -m s -V 4 -q 2 -lowpass 17 -b 128



Скачать Григорий.Сковорода.(Иван.Кавалеридзе).[1959.биография.SATRip].torrent без регистрации
Золото ЗОЛОТАЯ РАЗДАЧА! СКАЧАННОЕ НЕ ЗАСЧИТЫВАЕТСЯ! Золото
Дата: Зарегистрирован   [ Тип: внутренний ] Как тут cкачать?
MAGNET ссылка
MAGNET ссылка


Скачать .torrent

17 KB

Статус: проверено DHT
Скачан: торрент - 25 раз, раздача полностью - 0 раз
Размер: 776 MB
Оценка:  - (Голосов: 0)
Поблагодарили: 0
Поделиться ссылкой на эту раздачу с друзьями:
В контактеFacebookОдноклассникиTwitterLivejournalМой МирLiveinternet
 

 
Показать сообщения:    


Вы не можете начинать темы
Вы не можете отвечать на сообщения
Вы не можете редактировать свои сообщения
Вы не можете удалять свои сообщения
Вы не можете голосовать в опросах
Вы не можете прикреплять файлы к сообщениям
Вы можете скачивать файлы