Loading...
Error

Скачать BBC: Голубая планета 2 / Blue Planet II [01x01 из 06] (Дэвид Аттенборо) [2017, документальный, BDRip] [1080p] [VO (JimmyJ)]+[Eng] торрент без регистрации

Статистика раздачи
Размер:  4,98 GB   |    Скачан:  16 раз
Сидов:  2  [  0 KB/s  ]  
 
 
 
Автор Сообщение

Marsianka

[] 

Информация о фильме
Название: Голубая планета 2
Оригинальное название: Blue Planet II
Год выхода: 2017
Жанр: документальный
Режиссер: Дэвид Аттенборо
В ролях: Дэвид Аттенборо

О фильме:
Несмотря на то, что вода занимает две трети нашей планеты, о глубинах океана мы знаем меньше, чем о поверхности Луны. От известного до непознанного — новый документальный сериал «ГОЛУБАЯ ПЛАНЕТА» открывает нам всю красоту и очарование океана, поражая воображение многообразием его обитателей.

Сериал «ГОЛУБАЯ ПЛАНЕТА» — это всестороннее и наиболее полное исследование подводного мира. Использование новейших технологий и уникального оборудования для глубоководных съемок раскроют зрителю самые сокровенные тайны мирового океана и позволят увидеть редчайшие кадры из жизни его обитателей, о существовании которых мы могли ранее только догадываться.



Реклама отсутствует

Страна: UK
Канал: BBC One
Продолжительность: 01:00:00 х 1
Перевод: любительский одноголосый (JimmyJ)
Роли озвучивали: Дмитрий Чепусов
Монтаж: Кирилл Жирнов

Файл
Кодек: AVC
Качество: BDRip 1080p
Видео: ~ 9300 Кбит/с, 1920x1080, 25 fps
Звук #1: Русский / DTS / 5.1 / 1 509 kbps / 48 kHz / 24bit
Звук #2: Английский / DTS / 5.1 / 1 509 kbps / 48 kHz / 24 bit
Субтитры: Нет
Общее
Уникальный идентификатор : 180070071296675226183861528490365561392 (0x87783BF724132E14AF761BA3A4DA2A30)
Полное имя : ...Blue.Planet.II.S01.1080p.Bluray.JimmyJBlue.Planet.II.S01E01.1080p.BluRay.JimmyJ.mkv
Формат : Matroska
Версия формата : Version 4 / Version 2
Размер файла : 4,98 Гбайт
Продолжительность : 57 м. 52 с.
Общий поток : 12,3 Мбит/сек
Дата кодирования : UTC 2017-12-12 17:14:07
Программа кодирования : mkvmerge v18.0.0 ('Apricity') 64-bit
Библиотека кодирования : libebml v1.3.5 + libmatroska v1.4.8

Видео
Идентификатор : 1
Формат : AVC
Формат/Информация : Advanced Video Codec
Профиль формата : High@L4.1
Настройки формата : CABAC / 4 Ref Frames
Параметр CABAC формата : Да
Параметр RefFrames формата : 4 кадра
Идентификатор кодека : V_MPEG4/ISO/AVC
Продолжительность : 57 м. 52 с.
Битрейт : 9302 Кбит/сек
Ширина : 1920 пикселей
Высота : 1080 пикселей
Соотношение сторон : 16:9
Режим частоты кадров : Постоянный
Частота кадров : 25,000 кадров/сек
Цветовое пространство : YUV
Субдискретизация насыщенности : 4:2:0
Битовая глубина : 8 бит
Тип развёртки : Прогрессивная
Бит/(Пиксели*Кадры) : 0.179
Размер потока : 3,76 Гбайт (75%)
Библиотека кодирования : x264 core 152 r2851 ba24899
Настройки программы : cabac=1 / ref=4 / deblock=1:-3:-3 / analyse=0x3:0x113 / me=umh / subme=8 / psy=1 / psy_rd=1.00:0.00 / mixed_ref=1 / me_range=16 / chroma_me=1 / trellis=1 / 8x8dct=1 / cqm=0 / deadzone=21,11 / fast_pskip=1 / chroma_qp_offset=-2 / threads=6 / lookahead_threads=1 / sliced_threads=0 / nr=0 / decimate=1 / interlaced=0 / bluray_compat=0 / constrained_intra=0 / bframes=3 / b_pyramid=2 / b_adapt=2 / b_bias=0 / direct=3 / weightb=1 / open_gop=0 / weightp=2 / keyint=250 / keyint_min=25 / scenecut=40 / intra_refresh=0 / rc_lookahead=50 / rc=2pass / mbtree=1 / bitrate=9302 / ratetol=1.0 / qcomp=0.60 / qpmin=0 / qpmax=69 / qpstep=4 / cplxblur=20.0 / qblur=0.5 / ip_ratio=1.40 / aq=3:0.80
Default : Нет
Forced : Нет

Аудио #1
Идентификатор : 2
Формат : DTS
Формат/Информация : Digital Theater Systems
Идентификатор кодека : A_DTS
Продолжительность : 57 м. 52 с.
Вид битрейта : Постоянный
Битрейт : 1509 Кбит/сек
Каналы : 6 каналов
Расположение каналов : Front: L C R, Side: L R, LFE
Частота : 48,0 КГц
Частота кадров : 93,750 кадра/сек (512 SPF)
Битовая глубина : 24 бит
Метод сжатия : С потерями
Размер потока : 625 Мбайт (12%)
Заголовок : AVO JimmyJ
Язык : Russian
Default : Нет
Forced : Нет

Аудио #2
Идентификатор : 3
Формат : DTS
Формат/Информация : Digital Theater Systems
Идентификатор кодека : A_DTS
Продолжительность : 57 м. 52 с.
Вид битрейта : Постоянный
Битрейт : 1509 Кбит/сек
Каналы : 6 каналов
Расположение каналов : Front: L C R, Side: L R, LFE
Частота : 48,0 КГц
Частота кадров : 93,750 кадра/сек (512 SPF)
Битовая глубина : 24 бит
Метод сжатия : С потерями
Размер потока : 625 Мбайт (12%)
Заголовок : Original
Язык : English
Default : Нет
Forced : Нет

Меню
00:00:00.000 : en:00:00:00.000
00:12:00.640 : en:00:12:00.640
00:18:35.960 : en:00:18:35.960
00:27:25.320 : en:00:27:25.320
00:40:16.040 : en:00:40:16.040
00:48:07.320 : en:00:48:07.320



Скачать BBC.Голубая.планета.2.Blue.Planet.II.[01x01.из.06].(Дэвид.Аттенборо).[2017.документальный.BDRip].[1080p].[VO.(JimmyJ)]+[Eng].torrent без регистрации
Золото ЗОЛОТАЯ РАЗДАЧА! СКАЧАННОЕ НЕ ЗАСЧИТЫВАЕТСЯ! Золото
Дата: Зарегистрирован   [ Тип: внешний ] Как тут cкачать?
MAGNET ссылка
MAGNET ссылка


Скачать .torrent

13 KB

Статус: проверено DHT
Скачан: торрент - 16 раз, раздача полностью - 25 раз
Размер: 4,98 GB
Оценка:  - (Голосов: 0)
Поблагодарили: 0
Поделиться ссылкой на эту раздачу с друзьями:
В контактеFacebookОдноклассникиTwitterLivejournalМой МирLiveinternet
 

 
Показать сообщения:    


Вы не можете начинать темы
Вы не можете отвечать на сообщения
Вы не можете редактировать свои сообщения
Вы не можете удалять свои сообщения
Вы не можете голосовать в опросах
Вы не можете прикреплять файлы к сообщениям
Вы можете скачивать файлы