Loading...
Error

Скачать Дуэлянты / The Duellists (Ридли Скотт) [1977, драма, ВDRip] [1080p] [MVO]+[Оригинал]+[Sub Rus, Eng]x2 торрент без регистрации

Статистика раздачи
Размер:  8,35 GB   |    Скачан:  20 раз

Полного источника не было: 24 минуты

 
 
 
Автор Сообщение

Marsianka

[] 



Информация о фильме
Название: Дуэлянты
Оригинальное название:The Duellists
Год выхода: 1977
Жанр: драма
Режиссер: Ридли Скотт
В ролях: Кит Кэрредин, Харви Кейтель, Альберт Финни, Эдвард Фокс, Кристина Рейнес, Роберт Стивенс (I), Том Конти, Джон МакИнери, Дайана Куик, Алан Армстронг, Гэй Хэмилтон, Мэг Винн Оуэн, Дженни Ранэйкр

Описание:
Фильм снят по повести Джозефа Конрада «Дуэль».
Первая режиссерская работа прославленного Ридли Скотта рассказывает нам драматическую историю вражды двух офицеров наполеоновской армии. Два незаурядных человека - Феро и д’Юбер из-за глупой ссоры долгие годы сражаются на дуэли, но всякий раз никак не могут довести свой поединок до конца. Вновь и вновь судьба сводит и разводит их, и снова и снова они берутся за оружие. Военные действия бросают французских офицеров то в жаркие долины Испании, то в зеленые бельгийские луга, то в снежные равнины России. И только после крушения империи Наполеона, Феро и д’Юбер наконец поставят точку в их вечном противостоянии.



Страна: Великобритания
Студия: Enigma Productions, National Film Finance Corporation (NFFC)
Продолжительность: 01:40:33
Перевод: Профессиональный многоголосый закадровый
Субтитры: Русские, английские

Файл
Кодек: x264
Качество: ВDRip 1080p
Видео: AVC/H.264, 1920x1080, ~11,0 Mbps
Аудио#1: AC3, 6 ch, 448 Kbps | Русский – MVO [DVD R5]
Аудио#2: AC3, 6 ch, 448 Kbps | Французский – оригинал

Общее
Уникальный идентификатор : 232810378976443625625107811680981488944 (0xAF25A5E4DE052786B73D5A47DE4E1530)
Полное имя : H:НАЧАЛО XVI ВЕКА – ХХI ВЕКДуэлянтыДуэлянты. 1977. BDRip [1080p].mkv
Формат : Matroska
Версия формата : Version 4 / Version 2
Размер файла : 8,35 Гбайт
Продолжительность : 1 ч. 40 м.
Общий поток : 11,9 Мбит/сек
Название фильма : Release for Topmost
Дата кодирования : UTC 2017-12-02 05:14:01
Программа кодирования : mkvmerge v6.2.0 ('Promised Land') built on Apr 28 2013 12:22:01
Библиотека кодирования : libebml v1.3.0 + libmatroska v1.4.0
Attachment : Yes

Видео
Идентификатор : 1
Формат : AVC
Формат/Информация : Advanced Video Codec
Профиль формата : High@L4.1
Параметр CABAC формата : Да
Параметр ReFrames формата : 4 кадра
Идентификатор кодека : V_MPEG4/ISO/AVC
Продолжительность : 1 ч. 40 м.
Битрейт : 11,0 Мбит/сек
Ширина : 1920 пикселей
Высота : 1080 пикселей
Соотношение сторон : 16:9
Режим частоты кадров : Постоянный
Частота кадров : 23,976 кадра/сек
Цветовое пространство : YUV
Субдискретизация насыщенности : 4:2:0
Битовая глубина : 8 бит
Тип развёртки : Прогрессивная
Бит/(Пиксели*Кадры) : 0.221
Размер потока : 7,56 Гбайт (90%)
Заголовок : Дуэлянты. 1977 (Release for Topmost)
Библиотека кодирования : x264 core 146 r2538 121396c
Настройки программы : cabac=1 / ref=4 / deblock=1:-3:-3 / analyse=0x3:0x113 / me=umh / subme=11 / psy=1 / psy_rd=1.00:0.15 / mixed_ref=1 / me_range=32 / chroma_me=1 / trellis=2 / 8x8dct=1 / cqm=0 / deadzone=21,11 / fast_pskip=0 / chroma_qp_offset=-3 / threads=12 / lookahead_threads=2 / sliced_threads=0 / nr=0 / decimate=0 / interlaced=0 / bluray_compat=0 / constrained_intra=0 / bframes=8 / b_pyramid=2 / b_adapt=2 / b_bias=0 / direct=3 / weightb=1 / open_gop=0 / weightp=2 / keyint=240 / keyint_min=23 / scenecut=40 / intra_refresh=0 / rc_lookahead=40 / rc=2pass / mbtree=1 / bitrate=11000 / ratetol=1.0 / qcomp=0.60 / qpmin=0 / qpmax=69 / qpstep=4 / cplxblur=20.0 / qblur=0.5 / ip_ratio=1.40 / aq=1:0.90
Язык : English
Default : Да
Forced : Нет

Аудио #1
Идентификатор : 2
Формат : AC-3
Формат/Информация : Audio Coding 3
Расширение режима : CM (complete main)
Параметр Endianness формата : Big
Идентификатор кодека : A_AC3
Продолжительность : 1 ч. 40 м.
Вид битрейта : Постоянный
Битрейт : 448 Кбит/сек
Каналы : 6 каналов
Расположение каналов : Front: L C R, Side: L R, LFE
Частота : 48,0 КГц
Битовая глубина : 16 бит
Метод сжатия : С потерями
Размер потока : 322 Мбайт (4%)
Заголовок : AC3, 6 ch, 448 Kbps - MVO [DVD R5]
Язык : Russian
Default : Да
Forced : Нет

Аудио #2
Идентификатор : 3
Формат : AC-3
Формат/Информация : Audio Coding 3
Расширение режима : CM (complete main)
Параметр Endianness формата : Big
Идентификатор кодека : A_AC3
Продолжительность : 1 ч. 40 м.
Вид битрейта : Постоянный
Битрейт : 448 Кбит/сек
Каналы : 6 каналов
Расположение каналов : Front: L C R, Side: L R, LFE
Частота : 48,0 КГц
Битовая глубина : 16 бит
Метод сжатия : С потерями
Размер потока : 322 Мбайт (4%)
Заголовок : AC3, 6 ch, 448 Kbps - оригинал
Язык : English
Default : Нет
Forced : Нет

Текст #1
Идентификатор : 4
Формат : UTF-8
Идентификатор кодека : S_TEXT/UTF8
Идентификатор кодека/Информация : UTF-8 Plain Text
Язык : Russian
Default : Да
Forced : Нет

Текст #2
Идентификатор : 5
Формат : UTF-8
Идентификатор кодека : S_TEXT/UTF8
Идентификатор кодека/Информация : UTF-8 Plain Text
Язык : Russian
Default : Нет
Forced : Нет





Скачать Дуэлянты.The.Duellists.(Ридли.Скотт).[1977.драма.ВDRip].[1080p].[MVO]+[Оригинал]+[Sub.Rus.Eng]x2.torrent без регистрации
Золото ЗОЛОТАЯ РАЗДАЧА! СКАЧАННОЕ НЕ ЗАСЧИТЫВАЕТСЯ! Золото
Дата: Зарегистрирован   [ Тип: внутренний ] Как тут cкачать?
MAGNET ссылка
MAGNET ссылка


Скачать .torrent

22 KB

Статус: проверено DHT
Скачан: торрент - 20 раз, раздача полностью - 5 раз
Размер: 8,35 GB
Оценка:  - (Голосов: 0)
Поблагодарили: 1
Поделиться ссылкой на эту раздачу с друзьями:
В контактеFacebookОдноклассникиTwitterLivejournalМой МирLiveinternet
 

 
Показать сообщения:    


Вы не можете начинать темы
Вы не можете отвечать на сообщения
Вы не можете редактировать свои сообщения
Вы не можете удалять свои сообщения
Вы не можете голосовать в опросах
Вы не можете прикреплять файлы к сообщениям
Вы можете скачивать файлы