Loading...
Error

Скачать Полёт навигатора / Flight of the Navigator (Рэндал Клайзер) [1986, фантастика, приключения, семейный, BDRip] [720p] [Dub]x2+[MVO]x2+[VO]+[Eng]+[Sub]x3 торрент без регистрации

Статистика раздачи
Размер:  4,85 GB   |    Скачан:  21 раз
Сидов:  1  [  0 KB/s  ]  
 
 
 
Автор Сообщение

Marsianka

[] 

Информация о фильме
Название: Полет навигатора
Оригинальное название: Flight of the Navigator
Год выпуска: 1986
Страна: США, Норвегия
Студия: Walt Disney Pictures
Жанр: фантастика, приключения, семейный
Режиссер: Рэндал Клайзер / Randal Kleiser
В ролях: Джои Крамер, Пол Рубенс, Вероника Картрайт, Клифф Де Янг, Сара Джессика Паркер, Мэтт Адлер, Ховард Хессеман, Роберт Смолл, Элби Уайтакер

Описание: Двенадцатилетний Дэвид пропадает без вести и самым таинственным образом возвращается восемь лет спустя, ничуть не повзрослевшим. Одновременно с его появлением в окрестностях обнаруживают НЛО. И не случайно! Все эти восемь лет Дэвид провёл в обществе инопланетян и из глубин вселенной принёс знания, ранее не известные человечеству.
За это время Дэвид стал опытным пилотом, и на фантастическом летательном аппарате может улететь, куда только не пожелает! Навигатор отправляется в полный приключений полёт!..



Продолжительность: 01:29:33
Перевод: Профессиональный (дублированный) киностудия им. Горького
Перевод (2): Профессиональный (многоголосый закадровый) СТС
Перевод (3): Любительский (одноголосый закадровый) Ray
Перевод (4): Украинский: Дубляж
Перевод (5): Украинский: профессиональный многоголосый закадровый Ентер фільм

x264 [info]: frame I:1084 Avg QP:17.27 size:123962
x264 [info]: frame P:27862 Avg QP:19.93 size: 47060
x264 [info]: frame B:99888 Avg QP:21.81 size: 20641

Общее
Уникальный идентификатор : 208233831196466213954711018950311793441 (0x9CA86089345CAFC4872516C851AFD321)
Полное имя : F:Flight.of.the.Navigator.1986.BDRip.720p.3xRus.2xUkr.Eng.mkv
Формат : Matroska
Версия формата : Version 4 / Version 2
Размер файла : 4,85 Гбайт
Продолжительность : 1 ч. 29 м.
Общий поток : 7758 Кбит/сек
Дата кодирования : UTC 2017-12-13 18:33:56
Программа кодирования : mkvmerge v7.9.0 ('Birds') 64bit
Библиотека кодирования : libebml v1.3.1 + libmatroska v1.4.2
DURATION : 01:23:07.080000000
NUMBER_OF_FRAMES : 983
NUMBER_OF_BYTES : 62553
_STATISTICS_WRITING_APP : mkvmerge v7.9.0 ('Birds') 64bit
_STATISTICS_WRITING_DATE_UTC : 2017-12-13 18:33:56
_STATISTICS_TAGS : BPS DURATION NUMBER_OF_FRAMES NUMBER_OF_BYTES

Видео
Идентификатор : 1
Формат : AVC
Формат/Информация : Advanced Video Codec
Профиль формата : High@L4.1
Параметр CABAC формата : Да
Параметр ReFrames формата : 7 кадров
Идентификатор кодека : V_MPEG4/ISO/AVC
Продолжительность : 1 ч. 29 м.
Битрейт : 5222 Кбит/сек
Ширина : 1280 пикселей
Высота : 720 пикселей
Соотношение сторон : 16:9
Режим частоты кадров : Постоянный
Частота кадров : 23,976 кадра/сек
Цветовое пространство : YUV
Субдискретизация насыщенности : 4:2:0
Битовая глубина : 8 бит
Тип развёртки : Прогрессивная
Бит/(Пиксели*Кадры) : 0.236
Размер потока : 3,17 Гбайт (65%)
Библиотека кодирования : x264 core 115 r1937 aa21558
Настройки программы : cabac=1 / ref=7 / deblock=1:-3:-3 / analyse=0x3:0 / me=umh / subme=9 / psy=1 / psy_rd=0.80:0.10 / mixed_ref=1 / me_range=24 / chroma_me=1 / trellis=2 / 8x8dct=1 / cqm=0 / deadzone=21,11 / fast_pskip=0 / chroma_qp_offset=-3 / threads=6 / sliced_threads=0 / nr=0 / decimate=1 / interlaced=0 / bluray_compat=0 / constrained_intra=0 / bframes=7 / b_pyramid=2 / b_adapt=2 / b_bias=0 / direct=3 / weightb=1 / open_gop=0 / weightp=2 / keyint=240 / keyint_min=23 / scenecut=40 / intra_refresh=0 / rc_lookahead=60 / rc=2pass / mbtree=1 / bitrate=5222 / ratetol=1.0 / qcomp=0.60 / qpmin=0 / qpmax=69 / qpstep=4 / cplxblur=20.0 / qblur=0.5 / ip_ratio=1.40 / aq=2:1.00
Язык : English
Default : Да
Forced : Нет
DURATION : 01:29:33.460000000
NUMBER_OF_FRAMES : 128834
NUMBER_OF_BYTES : 3507322986
_STATISTICS_WRITING_APP : mkvmerge v7.9.0 ('Birds') 64bit
_STATISTICS_WRITING_DATE_UTC : 2017-12-13 18:33:56
_STATISTICS_TAGS : BPS DURATION NUMBER_OF_FRAMES NUMBER_OF_BYTES

Аудио #1
Идентификатор : 2
Формат : AC-3
Формат/Информация : Audio Coding 3
Профиль формата : Dolby Digital
Расширение режима : CM (complete main)
Параметр Endianness формата : Big
Идентификатор кодека : A_AC3
Продолжительность : 1 ч. 29 м.
Вид битрейта : Постоянный
Битрейт : 192 Кбит/сек
Каналы : 2 канала
Расположение каналов : Front: L R
Частота : 48,0 КГц
Битовая глубина : 16 бит
Метод сжатия : С потерями
Размер потока : 123 Мбайт (2%)
Заголовок : Дубляж Киностудия им. Горького
Язык : Russian
Default : Да
Forced : Нет

Аудио #2
Идентификатор : 3
Формат : AC-3
Формат/Информация : Audio Coding 3
Профиль формата : Dolby Digital
Расширение режима : CM (complete main)
Параметр Endianness формата : Big
Идентификатор кодека : A_AC3
Продолжительность : 1 ч. 29 м.
Вид битрейта : Постоянный
Битрейт : 192 Кбит/сек
Каналы : 2 канала
Расположение каналов : Front: L R
Частота : 48,0 КГц
Битовая глубина : 16 бит
Метод сжатия : С потерями
Размер потока : 123 Мбайт (2%)
Заголовок : Профессиональный многоголосый - СТС
Язык : Russian
Default : Нет
Forced : Нет

Аудио #3
Идентификатор : 4
Формат : AC-3
Формат/Информация : Audio Coding 3
Профиль формата : Dolby Digital
Расширение режима : CM (complete main)
Параметр Endianness формата : Big
Идентификатор кодека : A_AC3
Продолжительность : 1 ч. 29 м.
Вид битрейта : Постоянный
Битрейт : 192 Кбит/сек
Каналы : 2 канала
Расположение каналов : Front: L R
Частота : 48,0 КГц
Битовая глубина : 16 бит
Метод сжатия : С потерями
Размер потока : 123 Мбайт (2%)
Заголовок : Любительский одноголосый - Ray
Язык : Russian
Default : Нет
Forced : Нет

Аудио #4
Идентификатор : 5
Формат : AC-3
Формат/Информация : Audio Coding 3
Расширение режима : CM (complete main)
Параметр Endianness формата : Big
Идентификатор кодека : A_AC3
Продолжительность : 1 ч. 29 м.
Вид битрейта : Постоянный
Битрейт : 256 Кбит/сек
Каналы : 2 канала
Расположение каналов : Front: L R
Частота : 48,0 КГц
Битовая глубина : 16 бит
Метод сжатия : С потерями
Размер потока : 164 Мбайт (3%)
Заголовок : Дубляж
Язык : Ukrainian
Default : Нет
Forced : Нет

Аудио #5
Идентификатор : 6
Формат : AC-3
Формат/Информация : Audio Coding 3
Расширение режима : CM (complete main)
Параметр Endianness формата : Big
Идентификатор кодека : A_AC3
Продолжительность : 1 ч. 29 м.
Вид битрейта : Постоянный
Битрейт : 192 Кбит/сек
Каналы : 2 канала
Расположение каналов : Front: L R
Частота : 48,0 КГц
Битовая глубина : 16 бит
Метод сжатия : С потерями
Размер потока : 123 Мбайт (2%)
Заголовок : Профессиональный многоголосый - Ентер фільм
Язык : Ukrainian
Default : Нет
Forced : Нет

Аудио #6
Идентификатор : 7
Формат : DTS
Формат/Информация : Digital Theater Systems
Режим : 16
Параметр Endianness формата : Big
Идентификатор кодека : A_DTS
Продолжительность : 1 ч. 29 м.
Вид битрейта : Постоянный
Битрейт : 1509 Кбит/сек
Каналы : 6 каналов
Расположение каналов : Front: L C R, Side: L R, LFE
Частота : 48,0 КГц
Битовая глубина : 24 бит
Метод сжатия : С потерями
Размер потока : 967 Мбайт (19%)
Заголовок : 1536 kbps
Язык : English
Default : Нет
Forced : Нет

Текст #1
Идентификатор : 8
Формат : UTF-8
Идентификатор кодека : S_TEXT/UTF8
Идентификатор кодека/Информация : UTF-8 Plain Text
Язык : Russian
Default : Да
Forced : Нет

Текст #2
Идентификатор : 9
Формат : UTF-8
Идентификатор кодека : S_TEXT/UTF8
Идентификатор кодека/Информация : UTF-8 Plain Text
Язык : Ukrainian
Default : Нет
Forced : Нет

Текст #3
Идентификатор : 10
Формат : UTF-8
Идентификатор кодека : S_TEXT/UTF8
Идентификатор кодека/Информация : UTF-8 Plain Text
Язык : English
Default : Нет
Forced : Нет

Меню
00:00:00.000 : en:00:00:00.000
00:11:05.706 : en:00:11:05.706
00:21:46.138 : en:00:21:46.138
00:33:04.857 : en:00:33:04.857
00:39:57.186 : en:00:39:57.186
00:48:51.386 : en:00:48:51.386
01:00:58.363 : en:01:00:58.363
01:09:28.163 : en:01:09:28.163
01:19:17.752 : en:01:19:17.752
01:26:01.155 : en:01:26:01.155
01:29:32.950 : en:01:29:32.950
Качество: BDRip 720p
Формат: MKV
Видео: 1280x720 (16:9), 23.976 fps, AVC, ~5222 Kbps, 0.236 bits/pixel
Аудио #1: Russian:48 kHz, AC3, 2 ch, 192 kbps (DUB - Киностудия им. Горького)
Аудио #2: Russian:48 kHz, AC3, 2 ch, 192 kbps (MVO - СТС)
Аудио #3: Russian:48 kHz, AC3, 2 ch, 192 kbps (VO - Ray)
Аудио #4: Ukrainian, 48.0 KHz, AC3, 2 ch, 256 Kbps - Дубляж
Аудио #5: Ukrainian, 48.0 KHz, AC3, 2 ch, 192 Kbps - Профессиональный многоголосый - Ентер фільм
Аудио #6: English, 48.0 KHz, DTS, 6 ch, 1510 Kbps - 1536 kbps
Cубтитры: Русские, украинские, английские



Скачать Полёт.навигатора.Flight.of.the.Navigator.(Рэндал.Клайзер).[1986.фантастика.приключения.семейный.BDRip].[720p].[Dub]x2+[MVO]x2+[VO]+[Eng]+[Sub]x3.torrent без регистрации
Золото ЗОЛОТАЯ РАЗДАЧА! СКАЧАННОЕ НЕ ЗАСЧИТЫВАЕТСЯ! Золото
Дата: Зарегистрирован   [ Тип: внутренний ] Как тут cкачать?
MAGNET ссылка
MAGNET ссылка


Скачать .torrent

25 KB

Статус: проверено DHT
Скачан: торрент - 21 раз, раздача полностью - 3 раз
Размер: 4,85 GB
Оценка:  - (Голосов: 0)
Поблагодарили: 0
Поделиться ссылкой на эту раздачу с друзьями:
В контактеFacebookОдноклассникиTwitterLivejournalМой МирLiveinternet
 

 
Показать сообщения:    


Вы не можете начинать темы
Вы не можете отвечать на сообщения
Вы не можете редактировать свои сообщения
Вы не можете удалять свои сообщения
Вы не можете голосовать в опросах
Вы не можете прикреплять файлы к сообщениям
Вы можете скачивать файлы