Loading...
Error

Скачать Хладнокровный Люк / Cool Hand Luke (Стюарт Розенберг) [1967, драма, криминал, BDRemux] [1080p] [DVO]x2+[Eng]x2+[Sub Rus, Eng]x2 торрент без регистрации

Статистика раздачи
Размер:  17,8 GB   |    Скачан:  17 раз
Сидов:  1  [  0 KB/s  ]  
 
 
 
Автор Сообщение

Marsianka

[] 



Информация о фильме
Год выпуска: 1967
Жанр: драма, криминал,
Режиссер: Стюарт Розенберг
В ролях: Пол Ньюман, Джордж Кеннеди, Дж.Д. Кэннон, Лу Антонио, Роберт Драйвэс, Строзер Мартин, Джо Ван Флит, Клифтон Джеймс, Морган Вудворд, Люк Эскью, Марк Кавелл, Ричард Давалос, Роберт Доннер, Уоррен Финнерти, Деннис Хоппер, Джон МакЛайэм, Уэйн Роджерс, Гарри Дин Стэнтон, Чарльз Тайнер, Ральф Уэйт, Энтони Зербе, Бак Карталян, Джой Хармон

Описание фильма:
Однажды ночью Люк, выпив, решил развлечься и свинтил газовым ключом дюжину монетоприемников на автостоянке, за что и получил два года ремонтно-строительных работ на дорогах в южных штатах. Еще во время войны он много раз испытывал свою судьбу на прочность, и тюрьма стала очередной проверкой, которую Люк, похоже, и искал… За свой упрямый и упорный характер Люк получил от сокамерников уважительное прозвище Люк Хладнокровный, а с ним и ненависть надзирателей лагеря за стремление к свободе и непокорный нрав. Три побега, три ареста и три жестоких наказания не сломили его волю к жизни, он стал героем для остальных заключенных, героем-одиночкой, поставившим себя против системы…



Выпущено: США, Jalem Productions
Продолжительность: 02:06:35
Перевод: Профессиональный (двухголосый закадровый)
Субтитры: Английские, Русские

Файл
Качество видео: BDRemux 1080p
Контейнер: .mkv
Видеокодек: VC-1
Битрейт видео: ~ 19364 Кбит/с
Размер кадра: 1920х1080

1. Dolby Digital Русский 1.0 / 48 kHz / 192 kbps (Двухголосый закадровый, НТВ+)
2. Dolby Digital Русский 1.0 / 48 kHz / 192 kbps (Двухголосый закадровый, CP Digital)
3. Dolby Digital Английский 1.0 / 48 kHz / 192 kbps
4. Dolby Digital Английский 1.0 / 48 kHz / 192 kbps (Комментарии)


Format : Matroska
File size : 17.8 GiB
Duration : 2h 6mn
Overall bit rate : 20.1 Mbps
Encoded date : UTC 2013-01-10 18:13:19
Writing application : mkvmerge v3.1.0 ('Happy up here') built on Jan 19 2010 12:09:24
Writing library : libebml v0.7.9 + libmatroska v0.8.1

Video
ID : 1
Format : VC-1
Format profile : AP@L3
Codec ID : WVC1
Codec ID/Hint : Microsoft
Duration : 2h 6mn
Bit rate : 19.0 Mbps
Width : 1 920 pixels
Height : 1 080 pixels
Display aspect ratio : 16:9
Frame rate : 23.976 fps
Chroma subsampling : 4:2:0
Bit depth : 8 bits
Scan type : Progressive
Bits/(Pixel*Frame) : 0.381
Stream size : 16.8 GiB (94%)
Title : Hladnokrovnyi.Lyuk.1967.BD.Remux.1080p.VC-1.AC3.-HQ-ViDEO

Audio #1
ID : 2
Format : AC-3
Format/Info : Audio Coding 3
Mode extension : CM (complete main)
Codec ID : A_AC3
Duration : 2h 6mn
Bit rate mode : Constant
Bit rate : 192 Kbps
Channel(s) : 2 channels
Channel positions : Front: L R
Sampling rate : 48.0 KHz
Bit depth : 16 bits
Stream size : 174 MiB (1%)
Title : НТВ + двухголосый
Language : Russian

Audio #2
ID : 3
Format : AC-3
Format/Info : Audio Coding 3
Mode extension : CM (complete main)
Codec ID : A_AC3
Duration : 2h 6mn
Bit rate mode : Constant
Bit rate : 192 Kbps
Channel(s) : 1 channel
Channel positions : Front: C
Sampling rate : 48.0 KHz
Bit depth : 16 bits
Stream size : 174 MiB (1%)
Title : CP Digital двухголосый
Language : Russian

Audio #3
ID : 4
Format : AC-3
Format/Info : Audio Coding 3
Mode extension : CM (complete main)
Codec ID : A_AC3
Duration : 2h 6mn
Bit rate mode : Constant
Bit rate : 192 Kbps
Channel(s) : 1 channel
Channel positions : Front: C
Sampling rate : 48.0 KHz
Bit depth : 16 bits
Stream size : 174 MiB (1%)
Title : Оригинал Английский
Language : English

Audio #4
ID : 5
Format : AC-3
Format/Info : Audio Coding 3
Mode extension : CM (complete main)
Codec ID : A_AC3
Duration : 2h 6mn
Bit rate mode : Constant
Bit rate : 192 Kbps
Channel(s) : 1 channel
Channel positions : Front: C
Sampling rate : 48.0 KHz
Bit depth : 16 bits
Stream size : 174 MiB (1%)
Title : Комментарии
Language : English

Text #1
ID : 6
Format : UTF-8
Codec ID : S_TEXT/UTF8
Codec ID/Info : UTF-8 Plain Text
Title : Русские
Language : Russian

Text #2
ID : 7
Format : UTF-8
Codec ID : S_TEXT/UTF8
Codec ID/Info : UTF-8 Plain Text
Title : Русские 2
Language : Russian

Text #3
ID : 8
Format : UTF-8
Codec ID : S_TEXT/UTF8
Codec ID/Info : UTF-8 Plain Text
Title : Английские
Language : English





Скачать Хладнокровный.Люк.Cool.Hand.Luke.(Стюарт.Розенберг).[1967.драма.криминал.BDRemux].[1080p].[DVO]x2+[Eng]x2+[Sub.Rus.Eng]x2.torrent без регистрации
Золото ЗОЛОТАЯ РАЗДАЧА! СКАЧАННОЕ НЕ ЗАСЧИТЫВАЕТСЯ! Золото
Дата: Зарегистрирован   [ Тип: внутренний ] Как тут cкачать?
MAGNET ссылка
MAGNET ссылка


Скачать .torrent

45 KB

Статус: проверено DHT
Скачан: торрент - 17 раз, раздача полностью - 0 раз
Размер: 17,8 GB
Оценка:  - (Голосов: 0)
Поблагодарили: 0
Поделиться ссылкой на эту раздачу с друзьями:
В контактеFacebookОдноклассникиTwitterLivejournalМой МирLiveinternet
 

 
Показать сообщения:    


Вы не можете начинать темы
Вы не можете отвечать на сообщения
Вы не можете редактировать свои сообщения
Вы не можете удалять свои сообщения
Вы не можете голосовать в опросах
Вы не можете прикреплять файлы к сообщениям
Вы можете скачивать файлы