Loading...
Error

Скачать Прощай, детка, прощай / Gone Baby Gone (Бен Аффлек) [2007, триллер, драма, криминал, детектив, BDRip] [720p] [MVO]x3+[AVO]+[Eng]+[Sub]x3 торрент без регистрации

Статистика раздачи
Размер:  6,06 GB   |    Скачан:  29 раз
Сидов:  1  [  0 KB/s  ]  
 
 
 
Автор Сообщение

Marsianka

[] 

Прощай, детка, прощай / Gone Baby Gone

«Всем нужна правда... пока они ее не находят»

Русское название: Прощай, детка, прощай
Оригинальное название: Gone Baby Gone
Год выпуска: 2007
Жанр: триллер, драма, криминал, детектив
Выпущено: США
Режиссер: Бен Аффлек
В ролях: Кейси Аффлек , Мишель Монахэн , Морган Фриман , Эд Харрис , Эми Райан , Джон Эштон , Эми Мэдиган , Титус Уэлливер , Майкл Кеннет Уильямс , Эди Гатеги , Марк Марголис , Мадлен О’Брайэн
Перевод: Многоголосый закадровый, Авторский (одноголосый)


Сюжет фильма:
В пригороде Бостона без вести пропадает четырехлетняя Аманда МакКриди. Когда официальные власти прекращают попытки найти исчезнувшую девочку, ее тетя упрашивает двух частных детективов, Патрика Кензи и Анджелу Дженнаро, начать расследование.
Поначалу они не торопятся взяться за безнадежное дело, однако новые обстоятельства заставляют их поставить на кон не только собственные профессиональные репутации, но и жизни.

Фильм снят по мотивам романа Денниса Лихэйна «Прощай, детка, прощай» (Gone Baby Gone, 1998) из детективной серии «Кензи/Дженнаро».
Качество: BDRip 720p (исходник Blu-ray)
Формат: AVC (библиотека кодирования x.264)
Контейнер (Расширение): MKV
Видео: 1280x692, 4930 Кбит/сек, 23,976 кадр/сек, 0,232 Бит/[Пиксели*Кадры]
Аудио №1: русский / AC3 / 5.1 / 48 kHz / 384 kbps / |Многоголосый закадровый, Видеосервис|
Аудио №2: русский / AC3 / 5.1 / 48 kHz / 640 kbps / |Многоголосый закадровый, Киномания|
Аудио №3: русский / AC3 / 5.1 / 48 kHz / 640 kbps / |Авторский, В.Королев|
Аудио №4: Ukrainian, 48.0 KHz, AC3, 6 ch, 384 Kbps - |Многоголосый закадровый - ICTV|
Аудио №5: английский / AC3 / 5.1 / 48 kHz / 640 kbps /
Субтитры: русские (forced), русские (Full), английские (Full)
Навигация по главам(Чаптеры): есть
Продолжительность: 01:53:55
Автор рипа: Сообщество:

Общее
Уникальный идентификатор : 200704590964034884070752424786663463785 (0x96FE4C54F55B3D1999343988691E5B69)
Полное имя : D:/1080рGone.Baby.Gone.2007.BDRip.720p.3xRus.Ukr.Eng.[denis100].mkv
Формат : Matroska
Версия формата : Version 4 / Version 2
Размер файла : 6,06 Гбайт
Продолжительность : 1 ч. 53 м.
Общий поток : 7613 Кбит/сек
Название фильма : Proshhaj, detka, proshhaj.(2007).BDRip.720p.bdenis100B
Дата кодирования : UTC 2017-12-17 12:51:41
Программа кодирования : mkvmerge v7.9.0 ('Birds') 64bit
Библиотека кодирования : libebml v1.3.1 + libmatroska v1.4.2

Видео
Идентификатор : 1
Формат : AVC
Формат/Информация : Advanced Video Codec
Профиль формата : High@L4.1
Параметр CABAC формата : Да
Параметр RefFrames формата : 9 кадров
Идентификатор кодека : V_MPEG4/ISO/AVC
Продолжительность : 1 ч. 53 м.
Битрейт : 4930 Кбит/сек
Ширина : 1280 пикселей
Высота : 692 пикселя
Соотношение сторон : 1,85:1
Режим частоты кадров : Постоянный
Частота кадров : 23,976 (24000/1001) кадра/сек
Цветовое пространство : YUV
Субдискретизация насыщенности : 4:2:0
Битовая глубина : 8 бит
Тип развёртки : Прогрессивная
Бит/(Пиксели*Кадры) : 0.232
Размер потока : 3,92 Гбайт (65%)
Заголовок : Proshhaj, detka, proshhaj.(2007).BDRip.720p.bdenis100B
Библиотека кодирования : x264 core 146 r2538 121396c
Настройки программы : cabac=1 / ref=9 / deblock=1:-3:-3 / analyse=0x3:0x133 / me=umh / subme=11 / psy=1 / psy_rd=1.00:0.00 / mixed_ref=1 / me_range=48 / chroma_me=1 / trellis=2 / 8x8dct=1 / cqm=0 / deadzone=21,11 / fast_pskip=0 / chroma_qp_offset=-2 / threads=6 / lookahead_threads=1 / sliced_threads=0 / nr=0 / decimate=1 / interlaced=0 / bluray_compat=0 / constrained_intra=0 / bframes=12 / b_pyramid=2 / b_adapt=2 / b_bias=0 / direct=3 / weightb=1 / open_gop=0 / weightp=2 / keyint=240 / keyint_min=23 / scenecut=40 / intra_refresh=0 / rc=2pass / mbtree=0 / bitrate=4930 / ratetol=1.0 / qcomp=0.60 / qpmin=0 / qpmax=69 / qpstep=4 / cplxblur=20.0 / qblur=0.5 / ip_ratio=1.40 / pb_ratio=1.30 / aq=1:0.90
Язык : English
Default : Да
Forced : Нет

Аудио #1
Идентификатор : 2
Формат : AC-3
Формат/Информация : Audio Coding 3
Параметр Endianness формата : Big
Идентификатор кодека : A_AC3
Продолжительность : 1 ч. 53 м.
Вид битрейта : Постоянный
Битрейт : 384 Кбит/сек
Каналы : 6 каналов
Расположение каналов : Front: L C R, Side: L R, LFE
Частота : 48,0 КГц
Частота кадров : 31,250 кадров/сек (1536 SPF)
Битовая глубина : 16 бит
Метод сжатия : С потерями
Размер потока : 313 Мбайт (5%)
Заголовок : Многоголосый закадровый, Видеосервис
Язык : Russian
ServiceKind/String : Complete Main
Default : Да
Forced : Нет

Аудио #2
Идентификатор : 3
Формат : AC-3
Формат/Информация : Audio Coding 3
Параметр Endianness формата : Big
Идентификатор кодека : A_AC3
Продолжительность : 1 ч. 53 м.
Вид битрейта : Постоянный
Битрейт : 640 Кбит/сек
Каналы : 6 каналов
Расположение каналов : Front: L C R, Side: L R, LFE
Частота : 48,0 КГц
Частота кадров : 31,250 кадров/сек (1536 SPF)
Битовая глубина : 16 бит
Метод сжатия : С потерями
Размер потока : 522 Мбайт (8%)
Заголовок : Многоголосый закадровый, Киномания
Язык : Russian
ServiceKind/String : Complete Main
Default : Нет
Forced : Нет

Аудио #3
Идентификатор : 4
Формат : AC-3
Формат/Информация : Audio Coding 3
Параметр Endianness формата : Big
Идентификатор кодека : A_AC3
Продолжительность : 1 ч. 53 м.
Вид битрейта : Постоянный
Битрейт : 640 Кбит/сек
Каналы : 6 каналов
Расположение каналов : Front: L C R, Side: L R, LFE
Частота : 48,0 КГц
Частота кадров : 31,250 кадров/сек (1536 SPF)
Битовая глубина : 16 бит
Метод сжатия : С потерями
Размер потока : 522 Мбайт (8%)
Заголовок : Авторский, В.Королев
Язык : Russian
ServiceKind/String : Complete Main
Default : Нет
Forced : Нет

Аудио #4
Идентификатор : 5
Формат : AC-3
Формат/Информация : Audio Coding 3
Параметр Endianness формата : Big
Идентификатор кодека : A_AC3
Продолжительность : 1 ч. 53 м.
Вид битрейта : Постоянный
Битрейт : 384 Кбит/сек
Каналы : 6 каналов
Расположение каналов : Front: L C R, Side: L R, LFE
Частота : 48,0 КГц
Частота кадров : 31,250 кадров/сек (1536 SPF)
Битовая глубина : 16 бит
Метод сжатия : С потерями
Размер потока : 313 Мбайт (5%)
Заголовок : Многоголосый закадровый - ICTV
Язык : Ukrainian
ServiceKind/String : Complete Main
Default : Нет
Forced : Нет

Аудио #5
Идентификатор : 6
Формат : AC-3
Формат/Информация : Audio Coding 3
Параметр Endianness формата : Big
Идентификатор кодека : A_AC3
Продолжительность : 1 ч. 53 м.
Вид битрейта : Постоянный
Битрейт : 640 Кбит/сек
Каналы : 6 каналов
Расположение каналов : Front: L C R, Side: L R, LFE
Частота : 48,0 КГц
Частота кадров : 31,250 кадров/сек (1536 SPF)
Битовая глубина : 16 бит
Метод сжатия : С потерями
Размер потока : 522 Мбайт (8%)
Язык : English
ServiceKind/String : Complete Main
Default : Нет
Forced : Нет

Текст #1
Идентификатор : 7
Формат : UTF-8
Идентификатор кодека : S_TEXT/UTF8
Идентификатор кодека/Информация : UTF-8 Plain Text
Продолжительность : 1 ч. 41 м.
Битрейт : 1 бит/сек
ElementCount : 14
Размер потока : 943 байт (0%)
Заголовок : forced
Язык : Russian
Default : Да
Forced : Нет

Текст #2
Идентификатор : 8
Формат : UTF-8
Идентификатор кодека : S_TEXT/UTF8
Идентификатор кодека/Информация : UTF-8 Plain Text
Продолжительность : 1 ч. 47 м.
Битрейт : 94 бит/сек
ElementCount : 1308
Размер потока : 74,6 Кбайт (0%)
Заголовок : Full
Язык : Russian
Default : Нет
Forced : Нет

Текст #3
Идентификатор : 9
Формат : UTF-8
Идентификатор кодека : S_TEXT/UTF8
Идентификатор кодека/Информация : UTF-8 Plain Text
Продолжительность : 1 ч. 47 м.
Битрейт : 126 бит/сек
ElementCount : 1594
Размер потока : 99,5 Кбайт (0%)
Язык : Ukrainian
Default : Нет
Forced : Нет

Текст #4
Идентификатор : 10
Формат : UTF-8
Идентификатор кодека : S_TEXT/UTF8
Идентификатор кодека/Информация : UTF-8 Plain Text
Продолжительность : 1 ч. 47 м.
Битрейт : 76 бит/сек
ElementCount : 1554
Размер потока : 59,9 Кбайт (0%)
Заголовок : Full
Язык : English
Default : Нет
Forced : Нет

Меню
00:00:00.000 : en:00:00:00.000
00:05:22.487 : en:00:05:22.487
00:10:05.104 : en:00:10:05.104
00:16:28.445 : en:00:16:28.445
00:20:51.750 : en:00:20:51.750
00:25:30.693 : en:00:25:30.693
00:30:31.871 : en:00:30:31.871
00:35:47.143 : en:00:35:47.143
00:37:11.061 : en:00:37:11.061
00:44:31.876 : en:00:44:31.876
00:52:06.623 : en:00:52:06.623
00:56:24.713 : en:00:56:24.713
01:02:16.356 : en:01:02:16.356
01:08:44.036 : en:01:08:44.036
01:13:31.323 : en:01:13:31.323
01:19:15.332 : en:01:19:15.332
01:27:00.965 : en:01:27:00.965
01:31:03.332 : en:01:31:03.332
01:39:31.465 : en:01:39:31.465
01:44:09.783 : en:01:44:09.783
01:49:06.081 : en:01:49:06.081



Скачать Прощай.детка.прощай.Gone.Baby.Gone.(Бен.Аффлек).[2007.триллер.драма.криминал.детектив.BDRip].[720p].[MVO]x3+[AVO]+[Eng]+[Sub]x3.torrent без регистрации
Золото ЗОЛОТАЯ РАЗДАЧА! СКАЧАННОЕ НЕ ЗАСЧИТЫВАЕТСЯ! Золото
Дата: Зарегистрирован   [ Тип: внутренний ] Как тут cкачать?
MAGNET ссылка
MAGNET ссылка


Скачать .torrent

31 KB

Статус: проверено DHT
Скачан: торрент - 29 раз, раздача полностью - 0 раз
Размер: 6,06 GB
Оценка:  5 (Голосов: 1)
Поблагодарили: 1
Поделиться ссылкой на эту раздачу с друзьями:
В контактеFacebookОдноклассникиTwitterLivejournalМой МирLiveinternet
 

 
Показать сообщения:    


Вы не можете начинать темы
Вы не можете отвечать на сообщения
Вы не можете редактировать свои сообщения
Вы не можете удалять свои сообщения
Вы не можете голосовать в опросах
Вы не можете прикреплять файлы к сообщениям
Вы можете скачивать файлы