Loading...
Error

Скачать Ангел Света / Gabriel (Шэйн Эббес) [2007, ужасы, фэнтези, боевик, триллер, WEB-DLRip-AVC] [MVO]+[Sub Rus, Eng]x2 торрент без регистрации

Статистика раздачи
Размер:  746 MB   |    Скачан:  28 раз
Сидов:  1  [  0 KB/s  ]  
 
 
 
Автор Сообщение

Marsianka

[] 

Информация о фильме
Название: Ангел Света / Габриель
Оригинальное название: Gabriel
Год выхода: 2007
Жанр: ужасы, фэнтези, боевик, триллер
Режиссер: Шэйн Эббес
В ролях: Энди Уитфилд, Дуэйн Стивенсон, Саманта Ноубл, Майкл Пиччирилли, Джек Кэмпбелл, Эрика Хейнатц, Гарри Павлидис, Кевин Коуплэнд, Мэтт Хилтон Тодд, Брендан Клиркин

О фильме :
Иная действительность. Пространство Небытия между раем и преисподней, где господствует мрак, и ведутся вековые битвы за возрожденные души. Архангел Гавриил — божественный вестник — послан с небес, чтобы вновь разжечь утраченный Свет и низвергнуть власть Тьмы в… Чистилище. Гавриил вынужден принять человеческий облик. Но на пороге решающей битвы с Падшими Ангелами его начинает обуревать внутренняя борьба с собственными человеческими чувствами. Устоит ли Он в этом противоборстве? Ведь Он — последний Луч Надежды в царстве Тьмы.



Страна: Австралия / HILT Productions, Redline Films
Продолжительность: 01:54:05
Перевод: Профессиональный (многоголосый закадровый)

Файл
Формат: MKV
Качество: WEB-DLRip-AVC
Видео: MPEG-4 AVC, 768x324, ~ 836 Кбит/с
Аудио: AAC-LC, 2 ch, ~ 76 Кбит/с
Субтитры: Русские, английские
Общее
Уникальный идентификатор : 185304528047268986253909901431237460753 (0x8B685A9BCA6DA842AAAF4FB6EB9B4311)
Полное имя : D:MOVIESGabriel.2007.ExKinoRay.mkv
Формат : Matroska
Версия формата : Version 4 / Version 2
Размер файла : 746 Мбайт
Продолжительность : 1 ч. 54 м.
Общий поток : 914 Кбит/сек
Дата кодирования : UTC 2017-12-17 12:55:30
Программа кодирования : mkvmerge v15.0.0 ('Duel with the Devil') 64-bit
Библиотека кодирования : libebml v1.3.5 + libmatroska v1.4.5

Видео
Идентификатор : 1
Формат : AVC
Формат/Информация : Advanced Video Codec
Профиль формата : High@L4.1
Параметр CABAC формата : Да
Параметр RefFrames формата : 10 кадров
Идентификатор кодека : V_MPEG4/ISO/AVC
Продолжительность : 1 ч. 54 м.
Битрейт : 836 Кбит/сек
Ширина : 768 пикселей
Высота : 324 пикселя
Соотношение сторон : 2,40:1
Режим частоты кадров : Постоянный
Частота кадров : 23,976 (24000/1001) кадра/сек
Цветовое пространство : YUV
Субдискретизация насыщенности : 4:2:0
Битовая глубина : 8 бит
Тип развёртки : Прогрессивная
Бит/(Пиксели*Кадры) : 0.140
Размер потока : 682 Мбайт (91%)
Библиотека кодирования : x264 core 152 r2851kMod ba24899
Настройки программы : cabac=1 / ref=10 / deblock=1:-3:-2 / analyse=0x3:0x133 / me=umh / subme=11 / psy=1 / fade_compensate=0.00 / psy_rd=1.00:0.12 / mixed_ref=1 / me_range=32 / chroma_me=1 / trellis=2 / 8x8dct=1 / cqm=0 / deadzone=21,11 / fast_pskip=0 / chroma_qp_offset=-3 / threads=6 / lookahead_threads=1 / sliced_threads=0 / nr=0 / decimate=0 / interlaced=0 / bluray_compat=0 / constrained_intra=0 / bframes=10 / b_pyramid=2 / b_adapt=2 / b_bias=0 / direct=3 / weightb=1 / open_gop=0 / weightp=2 / keyint=240 / keyint_min=23 / scenecut=40 / intra_refresh=0 / rc_lookahead=40 / rc=2pass / mbtree=1 / bitrate=836 / ratetol=1.0 / qcomp=0.60 / qpmin=0 / qpmax=69 / qpstep=4 / cplxblur=20.0 / qblur=0.5 / vbv_maxrate=50000 / vbv_bufsize=62500 / nal_hrd=none / filler=0 / ip_ratio=1.40 / aq=3:1.00
Default : Да
Forced : Нет

Аудио
Идентификатор : 2
Формат : AAC
Формат/Информация : Advanced Audio Codec
Профиль формата : LC
Идентификатор кодека : A_AAC
Продолжительность : 1 ч. 54 м.
Битрейт : 76,0 Кбит/сек
Каналы : 2 канала
Расположение каналов : Front: L R
Частота : 48,0 КГц
Частота кадров : 46,875 кадров/сек (1024 SPF)
Метод сжатия : С потерями
Задержка видео : 9 мс.
Размер потока : 62,0 Мбайт (8%)
Язык : Russian
Default : Да
Forced : Нет

Текст #1
Идентификатор : 3
Формат : UTF-8
Идентификатор кодека : S_TEXT/UTF8
Идентификатор кодека/Информация : UTF-8 Plain Text
Продолжительность : 1 ч. 50 м.
Битрейт : 54 бит/сек
ElementCount : 756
Размер потока : 44,1 Кбайт (0%)
Заголовок : Вита Алая
Язык : Russian
Default : Нет
Forced : Нет

Текст #2
Идентификатор : 4
Формат : UTF-8
Идентификатор кодека : S_TEXT/UTF8
Идентификатор кодека/Информация : UTF-8 Plain Text
Продолжительность : 1 ч. 48 м.
Битрейт : 46 бит/сек
ElementCount : 894
Размер потока : 36,8 Кбайт (0%)
Язык : English
Default : Нет
Forced : Нет

Меню
00:00:00.000 : en:1
00:05:35.000 : en:2
00:08:21.000 : en:3
00:11:08.000 : en:4
00:14:52.000 : en:5
00:22:26.000 : en:6
00:24:46.000 : en:7
00:27:00.000 : en:8
00:30:59.000 : en:9
00:34:45.000 : en:10
00:37:31.000 : en:11
00:39:33.000 : en:12
00:44:45.000 : en:13
00:46:44.000 : en:14
00:52:33.000 : en:15
00:57:40.000 : en:16
01:01:23.000 : en:17
01:03:19.000 : en:18
01:05:37.000 : en:19
01:09:52.000 : en:20
01:16:04.000 : en:21
01:22:48.000 : en:22
01:25:48.000 : en:23
01:28:48.000 : en:24
01:32:31.000 : en:25
01:39:21.000 : en:26
01:43:11.000 : en:27
01:47:49.000 : en:28
Релиз от:



Скачать Ангел.Света.Gabriel.(Шэйн.Эббес).[2007.ужасы.фэнтези.боевик.триллер.WEB-DLRip-AVC].[MVO]+[Sub.Rus.Eng]x2.torrent без регистрации
Золото ЗОЛОТАЯ РАЗДАЧА! СКАЧАННОЕ НЕ ЗАСЧИТЫВАЕТСЯ! Золото
Дата: Зарегистрирован   [ Тип: внутренний ] Как тут cкачать?
MAGNET ссылка
MAGNET ссылка


Скачать .torrent

16 KB

Статус: проверено DHT
Скачан: торрент - 28 раз, раздача полностью - 7 раз
Размер: 746 MB
Оценка:  - (Голосов: 0)
Поблагодарили: 0
Поделиться ссылкой на эту раздачу с друзьями:
В контактеFacebookОдноклассникиTwitterLivejournalМой МирLiveinternet
 

 
Показать сообщения:    


Вы не можете начинать темы
Вы не можете отвечать на сообщения
Вы не можете редактировать свои сообщения
Вы не можете удалять свои сообщения
Вы не можете голосовать в опросах
Вы не можете прикреплять файлы к сообщениям
Вы можете скачивать файлы