Loading...
Error

Скачать Быть творцом / Maker (Muris) [2013, документальный, BDRip] [1080p] [DVO]+[Sub (Перевод надписей)] торрент без регистрации

Статистика раздачи
Размер:  1,96 GB   |    Скачан:  30 раз
Сидов:  1  [  0 KB/s  ]  
 
 
 
Автор Сообщение

Marsianka

[] 

Информация о фильме
Название: Быть творцом
Оригинальное название: Maker
Год выхода: 2013
Жанр: документальный
Режиссер: Muris
В ролях: -

О фильме:
Замечательный документальный фильм о тех, кого большинство назовет безумцами и дураками, но позже будет использовать их изобретения в своей повседневной жизни.

Это фильм о творцах, изобретателях и об их попытках прорваться сквозь неповоротливую машину бюрократии, желая сделать наш с вами мир хоть чуточку лучше.



Присутствует реклама

Страна: USA
Канал: makerthemovie
Продолжительность: 01:05:49
Перевод: любительский двухголосый (JimmyJ)
Роли озвучивали: Дмитрий Чепусов и Маргарита Корш
Монтаж: Кирилл Жирнов

Файл
Кодек: AVC
Качество: BDRip 1080p
Видео: ~ 4000 Кбит/с, 1920x1080, 23.976 fps
Звук: Русский / AAC / 2.0 / 256 kbps / 44.1 kHz
Субтитры: Хардсаб (Перевод надписей)
Общее
Уникальный идентификатор : 174509922323580107220562167978309520655 (0x83496374B528458E8BC8F18A1E0D0D0F)
Полное имя : ...Maker.1080p.BDRip.JimmyJ.mp4
Формат : Matroska
Версия формата : Version 4 / Version 2
Размер файла : 1,96 Гбайт
Продолжительность : 1 ч. 5 м.
Общий поток : 4255 Кбит/сек
Дата кодирования : UTC 2017-12-17 10:27:48
Программа кодирования : mkvmerge v18.0.0 ('Apricity') 64-bit
Библиотека кодирования : libebml v1.3.5 + libmatroska v1.4.8
FileExtension_Invalid : mkv mk3d mka mks

Видео
Идентификатор : 1
Формат : AVC
Формат/Информация : Advanced Video Codec
Профиль формата : High@L4
Настройки формата : CABAC / 4 Ref Frames
Параметр CABAC формата : Да
Параметр RefFrames формата : 4 кадра
Идентификатор кодека : V_MPEG4/ISO/AVC
Продолжительность : 1 ч. 5 м.
Битрейт : 4000 Кбит/сек
Ширина : 1920 пикселей
Высота : 1080 пикселей
Соотношение сторон : 16:9
Режим частоты кадров : Постоянный
Частота кадров : 23,976 (24000/1001) кадра/сек
Цветовое пространство : YUV
Субдискретизация насыщенности : 4:2:0
Битовая глубина : 8 бит
Тип развёртки : Прогрессивная
Бит/(Пиксели*Кадры) : 0.080
Размер потока : 1,84 Гбайт (94%)
Библиотека кодирования : x264 core 152 r2851 ba24899
Настройки программы : cabac=1 / ref=3 / deblock=1:0:0 / analyse=0x3:0x113 / me=hex / subme=7 / psy=1 / psy_rd=1.00:0.00 / mixed_ref=1 / me_range=16 / chroma_me=1 / trellis=1 / 8x8dct=1 / cqm=0 / deadzone=21,11 / fast_pskip=1 / chroma_qp_offset=-2 / threads=6 / lookahead_threads=1 / sliced_threads=0 / nr=0 / decimate=1 / interlaced=0 / bluray_compat=0 / constrained_intra=0 / bframes=3 / b_pyramid=2 / b_adapt=1 / b_bias=0 / direct=1 / weightb=1 / open_gop=0 / weightp=2 / keyint=240 / keyint_min=23 / scenecut=40 / intra_refresh=0 / rc_lookahead=40 / rc=2pass / mbtree=1 / bitrate=4000 / ratetol=1.0 / qcomp=0.60 / qpmin=0 / qpmax=69 / qpstep=4 / cplxblur=20.0 / qblur=0.5 / ip_ratio=1.40 / aq=1:1.00
Default : Да
Forced : Нет

Аудио
Идентификатор : 2
Формат : AAC
Формат/Информация : Advanced Audio Codec
Профиль формата : LC
Идентификатор кодека : A_AAC-2
Продолжительность : 1 ч. 5 м.
Битрейт : 256 Кбит/сек
Каналы : 2 канала
Расположение каналов : Front: L R
Частота : 44,1 КГц
Частота кадров : 43,066 кадра/сек (1024 SPF)
Метод сжатия : С потерями
Размер потока : 121 Мбайт (6%)
Default : Да
Forced : Нет



Скачать Быть.творцом.Maker.(Muris).[2013.документальный.BDRip].[1080p].[DVO]+[Sub.(Перевод.надписей)].torrent без регистрации
Золото ЗОЛОТАЯ РАЗДАЧА! СКАЧАННОЕ НЕ ЗАСЧИТЫВАЕТСЯ! Золото
Дата: Зарегистрирован   [ Тип: внутренний ] Как тут cкачать?
MAGNET ссылка
MAGNET ссылка


Скачать .torrent

20 KB

Статус: проверено DHT
Скачан: торрент - 30 раз, раздача полностью - 1 раз
Размер: 1,96 GB
Оценка:  - (Голосов: 0)
Поблагодарили: 0
Поделиться ссылкой на эту раздачу с друзьями:
В контактеFacebookОдноклассникиTwitterLivejournalМой МирLiveinternet
 

 
Показать сообщения:    


Вы не можете начинать темы
Вы не можете отвечать на сообщения
Вы не можете редактировать свои сообщения
Вы не можете удалять свои сообщения
Вы не можете голосовать в опросах
Вы не можете прикреплять файлы к сообщениям
Вы можете скачивать файлы