Loading...
Error

Скачать Друг (Леонид Квинихидзе) [1987, драма, мелодрама, DVDRip-AVC] торрент без регистрации

Статистика раздачи
Размер:  1,53 GB   |    Скачан:  20 раз
Сидов:  1  [  0 KB/s  ]  
 
 
 
Автор Сообщение

Marsianka

[] 

Друг

Страна: СССР
Жанр: драма, мелодрама
Год выпуска: 1987
Продолжительность: 01:18:21
Перевод: Не требуется

Режиссер: Леонид Квинихидзе
В ролях: Сергей Шакуров, Василий Ливанов, Елена Соловей, Игорь Ясулович, Виктор Уральский, Анатолий Ромашин, Галина Польских, Татьяна Кочемасова, Наталья Коренченко, Софья Горшкова

Описание: Невероятная история о дружбе пьяницы и говорящей собаки, которая лучше людей понимает, что значит быть настоящим человеком.



Кодек: х264
Качество: DVDRip-AVC
Видео: MPEG-4 AVC, 698x572@744x572, 25 fps, 2600 Кбит/с
Аудио: AC3, 2 ch, 192 Кбит/с
Субтитры: нет

x264 [info]: frame I:659 Avg QP:16.04 size: 68776
x264 [info]: frame P:27326 Avg QP:19.76 size: 28818
x264 [info]: frame B:89541 Avg QP:21.49 size: 7758

Общее
Уникальный идентификатор : 237805338629018398659946921231247219021 (0xB2E7A46B280B9D0B8163C3D59FF0194D)
Полное имя : E:Мои рипыДруг 1987_DVD-AVC_KORSAR.mkv
Формат : Matroska
Версия формата : Version 2
Размер файла : 1,53 Гбайт
Продолжительность : 1 ч. 18 м.
Общий поток : 2793 Кбит/сек
Дата кодирования : UTC 2017-12-15 19:20:14
Программа кодирования : mkvmerge v5.8.0 ('No Sleep / Pillow') built on Sep 2 2012 15:37:04
Библиотека кодирования : libebml v1.2.3 + libmatroska v1.3.0

Видео
Идентификатор : 1
Формат : AVC
Формат/Информация : Advanced Video Codec
Профиль формата : High@L4.1
Настройки формата : CABAC / 15 Ref Frames
Параметр CABAC формата : Да
Параметр RefFrames формата : 15 кадров
Идентификатор кодека : V_MPEG4/ISO/AVC
Продолжительность : 1 ч. 18 м.
Битрейт : 2600 Кбит/сек
Ширина : 698 пикселей
Высота : 572 пикселя
Соотношение сторон : 4:3
Соотношение сторон в оригинале : 4:3
Режим частоты кадров : Постоянный
Частота кадров : 25,000 кадров/сек
Цветовое пространство : YUV
Субдискретизация насыщенности : 4:2:0
Битовая глубина : 8 бит
Тип развёртки : Прогрессивная
Бит/(Пиксели*Кадры) : 0.260
Размер потока : 1,39 Гбайт (91%)
Библиотека кодирования : x264 core 152 r2851kMod ba24899
Настройки программы : cabac=1 / ref=15 / deblock=1:-2:-1 / analyse=0x3:0x133 / me=umh / subme=11 / psy=1 / fade_compensate=0.00 / psy_rd=1.05:0.10 / mixed_ref=1 / me_range=48 / chroma_me=1 / trellis=2 / 8x8dct=1 / cqm=0 / deadzone=21,11 / fast_pskip=0 / chroma_qp_offset=-3 / threads=12 / lookahead_threads=2 / sliced_threads=0 / nr=0 / decimate=0 / interlaced=0 / bluray_compat=0 / constrained_intra=0 / bframes=8 / b_pyramid=2 / b_adapt=2 / b_bias=0 / direct=3 / weightb=1 / open_gop=0 / weightp=2 / keyint=250 / keyint_min=25 / scenecut=40 / intra_refresh=0 / rc_lookahead=40 / rc=2pass / mbtree=0 / bitrate=2600 / ratetol=1.0 / qcomp=0.60 / qpmin=0 / qpmax=39 / qpstep=4 / cplxblur=20.0 / qblur=0.5 / vbv_maxrate=50000 / vbv_bufsize=62500 / nal_hrd=none / filler=0 / ip_ratio=1.40 / pb_ratio=1.30 / aq=1:1.00
Язык : English
Default : Да
Forced : Нет
Цветовой диапазон : Limited
Основные цвета : BT.601 PAL
Характеристики трансфера : BT.470 System B, BT.470 System G
Коэффициенты матрицы : BT.470 System B, BT.470 System G

Аудио
Идентификатор : 2
Формат : AC-3
Формат/Информация : Audio Coding 3
Параметр Endianness формата : Big
Идентификатор кодека : A_AC3
Продолжительность : 1 ч. 18 м.
Вид битрейта : Постоянный
Битрейт : 192 Кбит/сек
Каналы : 2 канала
Расположение каналов : Front: L R
Частота : 48,0 КГц
Частота кадров : 31,250 кадров/сек (1536 SPF)
Битовая глубина : 16 бит
Метод сжатия : С потерями
Размер потока : 108 Мбайт (7%)
Default : Да
Forced : Нет



Скачать Друг.(Леонид.Квинихидзе).[1987.драма.мелодрама.DVDRip-AVC].torrent без регистрации
Золото ЗОЛОТАЯ РАЗДАЧА! СКАЧАННОЕ НЕ ЗАСЧИТЫВАЕТСЯ! Золото
Дата: Зарегистрирован   [ Тип: внутренний ] Как тут cкачать?
MAGNET ссылка
MAGNET ссылка


Скачать .torrent

16 KB

Статус: проверено DHT
Скачан: торрент - 20 раз, раздача полностью - 3 раз
Размер: 1,53 GB
Оценка:  - (Голосов: 0)
Поблагодарили: 0
Поделиться ссылкой на эту раздачу с друзьями:
В контактеFacebookОдноклассникиTwitterLivejournalМой МирLiveinternet
 

 
Показать сообщения:    


Вы не можете начинать темы
Вы не можете отвечать на сообщения
Вы не можете редактировать свои сообщения
Вы не можете удалять свои сообщения
Вы не можете голосовать в опросах
Вы не можете прикреплять файлы к сообщениям
Вы можете скачивать файлы