Loading...
Error

Скачать Карьера Димы Горина (Фрунзе Довлатян, Лев Мирский) [1962, мелодрама, комедия, WEB-DLRip] [720p] торрент без регистрации

Статистика раздачи
Размер:  4,69 GB   |    Скачан:  28 раз
Сидов:  9  [  0 KB/s  ]   Личеров:  1  [  0 KB/s  ]  
 
 
 
Автор Сообщение

Marsianka

[] 

Карьера Димы Горина

Жанр: мелодрама, комедия
Режиссер: Фрунзе Довлатян, Лев Мирский
Актеры: Александр Демьяненко, Татьяна Конюхова, Владимир Селезнев, Владимир Высоцкий, Евгений Кудряшёв, Николай Казаков, Алексей Ванин, Ровшан Алиев, Виталий Черменев, Валентина Ананьина

Описание: В одном большом городе жил Дима Горин, финансовый работник. Перед ним открывались блестящие перспективы: в один прекрасный день он был рекомендован на должность заведующего сберкассой, а там, глядишь, и до поста министра финансов недалеко. Дима и не предполагал, как круто вскоре изменится его судьба. Волею случая он оказался в тайге на строительстве высоковольтной линии электропередач, где решил остаться. А причиной столь неординарного поступка стала встреча с Галиной Березкой, красивой и веселой бригадиршей монтажниц...



Производство: СССР / Киностудия им. М. Горького
Продолжительность: 01:34:21

Качество видео:WEB-DLRip 720p
Видео: AVC/H.264, 952x720, 25 fps, ~6336 Kbps
Аудио #1: AC3, 48 kHz, 6 ch, 384 kbps
Аудио #2: АС-3, 48 kHz, 1 ch, 224 kbps
Главы: Есть

x264 [info]: frame I:772 Avg QP:17.62 size:146181
x264 [info]: frame P:29878 Avg QP:19.15 size: 83869
x264 [info]: frame B:110886 Avg QP:21.52 size: 17709
x264 [info]: consecutive B-frames: 1.1% 2.1% 4.3% 19.3% 32.6% 38.9% 1.5% 0.1% 0.0% 0.0%

Общее
Уникальный идентификатор : 246023803992432813465692681603258955331 (0xB916760B92FE971DAA00AA060776B643)
Полное имя : D:Карьера Димы Горина_1961-WEB-DLRip 720p_KORSAR.mkv
Формат : Matroska
Версия формата : Version 2
Размер файла : 4,67 Гбайт
Продолжительность : 1 ч. 34 м.
Общий поток : 7085 Кбит/сек
Название фильма : Карьера Димы Горина_1961-WEB-DLRip 720p_KORSAR
Дата кодирования : UTC 2017-12-13 14:30:28
Программа кодирования : mkvmerge v5.8.0 ('No Sleep / Pillow') built on Sep 2 2012 15:37:04
Библиотека кодирования : libebml v1.2.3 + libmatroska v1.3.0

Видео
Идентификатор : 1
Формат : AVC
Формат/Информация : Advanced Video Codec
Профиль формата : High@L4.1
Параметр CABAC формата : Да
Параметр RefFrames формата : 12 кадров
Идентификатор кодека : V_MPEG4/ISO/AVC
Продолжительность : 1 ч. 34 м.
Битрейт : 6336 Кбит/сек
Ширина : 952 пикселя
Высота : 720 пикселей
Соотношение сторон : 4:3
Режим частоты кадров : Постоянный
Частота кадров : 25,000 кадров/сек
Цветовое пространство : YUV
Субдискретизация насыщенности : 4:2:0
Битовая глубина : 8 бит
Тип развёртки : Прогрессивная
Бит/(Пиксели*Кадры) : 0.370
Размер потока : 4,18 Гбайт (89%)
Библиотека кодирования : x264 core 148 r2744kMod b97ae06
Настройки программы : cabac=1 / ref=12 / deblock=1:-2:-1 / analyse=0x3:0x113 / me=umh / subme=10 / psy=1 / fade_compensate=0.00 / psy_rd=1.05:0.05 / mixed_ref=1 / me_range=40 / chroma_me=1 / trellis=2 / 8x8dct=1 / cqm=0 / deadzone=21,11 / fast_pskip=1 / chroma_qp_offset=-3 / threads=12 / lookahead_threads=2 / sliced_threads=0 / nr=0 / decimate=1 / interlaced=0 / bluray_compat=0 / constrained_intra=0 / bframes=9 / b_pyramid=2 / b_adapt=2 / b_bias=0 / direct=1 / weightb=1 / open_gop=0 / weightp=2 / keyint=240 / keyint_min=24 / scenecut=40 / intra_refresh=0 / rc=crf / mbtree=0 / crf=17.4000 / qcomp=0.60 / qpmin=0 / qpmax=39 / qpstep=4 / ip_ratio=1.40 / pb_ratio=1.30 / aq=2:0.80
Язык : English
Default : Да
Forced : Нет
Цветовой диапазон : Limited
Основные цвета : BT.709
Характеристики трансфера : BT.709
Коэффициенты матрицы : BT.709

Аудио #1
Идентификатор : 2
Формат : AC-3
Формат/Информация : Audio Coding 3
Параметр Endianness формата : Big
Идентификатор кодека : A_AC3
Продолжительность : 1 ч. 34 м.
Вид битрейта : Постоянный
Битрейт : 384 Кбит/сек
Каналы : 6 каналов
Расположение каналов : Front: L C R, Side: L R, LFE
Частота : 48,0 КГц
Частота кадров : 31,250 кадров/сек (1536 SPF)
Битовая глубина : 16 бит
Метод сжатия : С потерями
Размер потока : 259 Мбайт (5%)
Язык : Russian
Default : Да
Forced : Нет

Аудио #2
Идентификатор : 3
Формат : AC-3
Формат/Информация : Audio Coding 3
Параметр Endianness формата : Big
Идентификатор кодека : A_AC3
Продолжительность : 1 ч. 34 м.
Вид битрейта : Постоянный
Битрейт : 224 Кбит/сек
Каналы : 1 канал
Расположение каналов : Front: C
Частота : 48,0 КГц
Частота кадров : 31,250 кадров/сек (1536 SPF)
Битовая глубина : 16 бит
Метод сжатия : С потерями
Размер потока : 151 Мбайт (3%)
Язык : Russian
Default : Нет
Forced : Нет

Текст
Идентификатор : 4
Формат : UTF-8
Идентификатор кодека : S_TEXT/UTF8
Идентификатор кодека/Информация : UTF-8 Plain Text
Заголовок : Субтитры русские
Язык : Russian
Default : Нет
Forced : Нет

Меню
00:00:00.000 : en:Chapter 1
00:05:33.480 : en:Chapter 2
00:10:59.880 : en:Chapter 3
00:15:31.200 : en:Chapter 4
00:19:26.760 : en:Chapter 5
00:25:00.000 : en:Chapter 6
00:29:40.320 : en:Chapter 7
00:34:25.080 : en:Chapter 8
00:41:05.880 : en:Chapter 9
00:45:39.720 : en:Chapter 10
00:50:21.600 : en:Chapter 11
00:54:07.080 : en:Chapter 12
00:58:16.920 : en:Chapter 13
01:05:12.600 : en:Chapter 14
01:10:48.720 : en:Chapter 15
01:15:30.720 : en:Chapter 16
01:21:03.480 : en:Chapter 17
01:27:54.600 : en:Chapter 18
01:34:20.760 : en:Chapter 19
Сравнение с HDTV 1080i




Скачать Карьера.Димы.Горина.(Фрунзе.Довлатян.Лев.Мирский).[1962.мелодрама.комедия.WEB-DLRip].[720p].torrent без регистрации
Золото ЗОЛОТАЯ РАЗДАЧА! СКАЧАННОЕ НЕ ЗАСЧИТЫВАЕТСЯ! Золото
Дата: Зарегистрирован   [ Тип: внешний ] Как тут cкачать?
MAGNET ссылка
MAGNET ссылка


Скачать .torrent

24 KB

Статус: проверено DHT
Скачан: торрент - 28 раз, раздача полностью - 7 раз
Размер: 4,69 GB
Оценка:  5 (Голосов: 1)
Поблагодарили: 1
Поделиться ссылкой на эту раздачу с друзьями:
В контактеFacebookОдноклассникиTwitterLivejournalМой МирLiveinternet
 

 
Показать сообщения:    


Вы не можете начинать темы
Вы не можете отвечать на сообщения
Вы не можете редактировать свои сообщения
Вы не можете удалять свои сообщения
Вы не можете голосовать в опросах
Вы не можете прикреплять файлы к сообщениям
Вы можете скачивать файлы