Loading...
Error

Скачать За нас двоих / A nous deux (Клод Лелуш) [1979, мелодрама, криминал, BDRip] [1080p] [MVO]+[Оригинал Fre]+[Sub Rus] торрент без регистрации

Статистика раздачи
Размер:  13,54 GB   |    Скачан:  21 раз

Полного источника не было: 24 минуты

 
 
 
Автор Сообщение

Marsianka

[] 

Название: За нас двоих
Оригинальное название: A nous deux
Год выпуска: 1979
Страна: Канада, Франция
Жанр: мелодрама, криминал
Продолжительность: 01:52:10
Перевод: профессиональный многоголосый

Режиссёр: Клод Лелуш

В ролях: Катрин Денёв, Жак Дютрон, Жак Вильре, Поль Пребуа, Бернар Ле Кок, Жильбер Женья, Жак Годен, Моник Мелинан, Эмиль Жене, Бернар Кромбей, Даниель Отой, Доминик Бернар, Джон Бойлан, Жан-Франсуа Реми, Натали Карон, Пьер Касадеи, Ленни Чэнс, Жерар Дармон, Ален Давид, Джеймс Дучар, Сонни Форбс, Мари-Пьер де Жерандо, Дик Грант, Анн Жуссе, Карин, Эвелин Кер, Эли Лоэр

Описание: В рождественскую ночь потомственный мошенник Симон совершает побег из тюрьмы. У своих друзей он случайно знакомится с Франсуазой — девушкой из приличной семьи, по воле судьбы ставшей авантюристкой. Франсуаза очень своеобразно зарабатывает на жизнь — она соблазняет мужчин, вместе со знакомым фотографом делает компрометирующие снимки и потом шантажирует «несчастных». Однако вскоре полиция выходит на след обоих искателей приключений — Симона и Франсуазы. Они решают вместе бежать из страны...



Качество: BDRip 1080p
Формат: MKV
Видео: MPEG-4 AVC, 15 Mбит/с, 1792x1080, 23,976 кадра/с
Аудио 1: русский, AC3, 384 kbps, 2 ch, 48 kHz [профессиональный многоголосый]
Аудио 2: французский, DTS, 1509 kbps, 2 ch, 48 kHz [оригинал]
Субтитры: русские
Общее
Уникальный идентификатор : 233418449712276452215482596213610928742 (0xAF9AC21890A2EC138BFC1646C5B65A66)
Полное имя : D:VideoЗа нас двоих.1979.BDRip.1080p.mkv
Формат : Matroska
Версия формата : Version 4 / Version 2
Размер файла : 13,5 Гбайт
Продолжительность : 1 ч. 52 м.
Общий поток : 17,3 Мбит/сек
Название фильма : BDRip -- STarankov
Дата кодирования : UTC 2015-07-03 02:20:43
Программа кодирования : mkvmerge v7.9.0 ('Birds') 64bit
Библиотека кодирования : libebml v1.3.1 + libmatroska v1.4.2
_STATISTICS_WRITING_APP : mkvmerge v7.9.0 ('Birds') 64bit
_STATISTICS_WRITING_DATE_UTC : 2015-07-03 02:20:43
_STATISTICS_TAGS : BPS DURATION NUMBER_OF_FRAMES NUMBER_OF_BYTES
DURATION : 01:52:10.230000000
NUMBER_OF_FRAMES : 630959
NUMBER_OF_BYTES : 1269489572

Видео
Идентификатор : 1
Формат : AVC
Формат/Информация : Advanced Video Codec
Профиль формата : High@L4.1
Параметр CABAC формата : Да
Параметр ReFrames формата : 4 кадра
Идентификатор кодека : V_MPEG4/ISO/AVC
Продолжительность : 1 ч. 52 м.
Битрейт : 15,0 Мбит/сек
Ширина : 1792 пикселя
Высота : 1080 пикселей
Соотношение сторон : 1,659
Режим частоты кадров : Постоянный
Частота кадров : 23,976 кадра/сек
Цветовое пространство : YUV
Субдискретизация насыщенности : 4:2:0
Битовая глубина : 8 бит
Тип развёртки : Прогрессивная
Бит/(Пиксели*Кадры) : 0.324
Размер потока : 11,8 Гбайт (87%)
Библиотека кодирования : x264 core 146 r2538 121396c
Настройки программы : cabac=1 / ref=4 / deblock=1:-1:-1 / analyse=0x3:0x113 / me=umh / subme=10 / psy=1 / psy_rd=1.00:0.15 / mixed_ref=1 / me_range=32 / chroma_me=1 / trellis=2 / 8x8dct=1 / cqm=0 / deadzone=21,11 / fast_pskip=1 / chroma_qp_offset=-3 / threads=6 / lookahead_threads=1 / sliced_threads=0 / nr=0 / decimate=1 / interlaced=0 / bluray_compat=0 / constrained_intra=0 / bframes=10 / b_pyramid=2 / b_adapt=2 / b_bias=0 / direct=1 / weightb=1 / open_gop=0 / weightp=2 / keyint=230 / keyint_min=23 / scenecut=40 / intra_refresh=0 / rc_lookahead=40 / rc=crf / mbtree=0 / crf=19.7 / qcomp=0.60 / qpmin=0 / qpmax=69 / qpstep=4 / vbv_maxrate=40000 / vbv_bufsize=50000 / crf_max=0.0 / nal_hrd=none / filler=0 / ip_ratio=1.40 / pb_ratio=1.30 / aq=1:1.00
Язык : French
Default : Да
Forced : Нет
DURATION : 01:52:10.266000000
NUMBER_OF_FRAMES : 161365
NUMBER_OF_BYTES : 12942918349
_STATISTICS_WRITING_APP : mkvmerge v7.9.0 ('Birds') 64bit
_STATISTICS_WRITING_DATE_UTC : 2015-07-03 02:20:43
_STATISTICS_TAGS : BPS DURATION NUMBER_OF_FRAMES NUMBER_OF_BYTES

Аудио #1
Идентификатор : 2
Формат : AC-3
Формат/Информация : Audio Coding 3
Расширение режима : CM (complete main)
Параметр Endianness формата : Big
Идентификатор кодека : A_AC3
Продолжительность : 1 ч. 52 м.
Вид битрейта : Постоянный
Битрейт : 384 Кбит/сек
Каналы : 2 канала
Расположение каналов : Front: L R
Частота : 48,0 КГц
Битовая глубина : 16 бит
Метод сжатия : С потерями
Размер потока : 308 Мбайт (2%)
Заголовок : MVO
Язык : Russian
Default : Да
Forced : Нет

Аудио #2
Идентификатор : 3
Формат : DTS
Формат/Информация : Digital Theater Systems
Режим : 16
Параметр Endianness формата : Big
Идентификатор кодека : A_DTS
Продолжительность : 1 ч. 52 м.
Вид битрейта : Постоянный
Битрейт : 1509 Кбит/сек
Каналы : 2 канала
Расположение каналов : Front: L R
Частота : 48,0 КГц
Битовая глубина : 24 бит
Метод сжатия : С потерями
Размер потока : 1,18 Гбайт (9%)
Заголовок : Original
Язык : French
Default : Нет
Forced : Нет

Текст
Идентификатор : 4
Формат : UTF-8
Идентификатор кодека : S_TEXT/UTF8
Идентификатор кодека/Информация : UTF-8 Plain Text
Заголовок : русский
Язык : Russian
Default : Нет
Forced : Нет



Скачать За.нас.двоих.A.nous.deux.(Клод.Лелуш).[1979.мелодрама.криминал.BDRip].[1080p].[MVO]+[Оригинал.Fre]+[Sub.Rus].torrent без регистрации
Золото ЗОЛОТАЯ РАЗДАЧА! СКАЧАННОЕ НЕ ЗАСЧИТЫВАЕТСЯ! Золото
Дата: Зарегистрирован   [ Тип: внутренний ] Как тут cкачать?
MAGNET ссылка
MAGNET ссылка


Скачать .torrent

35 KB

Статус: проверено DHT
Скачан: торрент - 21 раз, раздача полностью - 0 раз
Размер: 13,54 GB
Оценка:  - (Голосов: 0)
Поблагодарили: 0
Поделиться ссылкой на эту раздачу с друзьями:
В контактеFacebookОдноклассникиTwitterLivejournalМой МирLiveinternet
 

 
Показать сообщения:    


Вы не можете начинать темы
Вы не можете отвечать на сообщения
Вы не можете редактировать свои сообщения
Вы не можете удалять свои сообщения
Вы не можете голосовать в опросах
Вы не можете прикреплять файлы к сообщениям
Вы можете скачивать файлы