Loading...
Error

Скачать Военные игры / WarGames (Джон Бэдэм) [1983, фантастика, триллер, BDRip] [720p] [MVO]+[Оригинал Eng]+[Sub]x7 торрент без регистрации

Статистика раздачи
Размер:  9,91 GB   |    Скачан:  25 раз
Сидов:  1  [  0 KB/s  ]  
 
 
 
Автор Сообщение

Marsianka

[] 

Информация о фильме
Название: Военные игры
Оригинальное название: WarGames
Год выхода: 1983
Жанр: фантастика, триллер
Режиссер: Джон Бэдэм
В ролях: Мэттью Бродерик, Элли Шиди, Дэбни Коулмэн, Бэрри Корбин, Деннис Липском, Джон Вуд

Описание: Хакеру «повезло»: он вошел в компьютерную сеть Пентагона и стал играть в «войну». Операторы военного ведомства, а вслед за ними и командование решили, что русские начинают Третью Мировую Войну, и стали готовить ответный удар. Осознав, что он натворил, юноша хочет прекратить игру, однако сделать это оказывается далеко не просто…



Страна: США
Продолжительность: 01:52:37
Перевод:Профессиональный (многоголосый, закадровый)
Субтитры: русские, английские (полные, полные SDH), французские, немецкие, португальские, испанские
Оригинальная аудиодорожка: английский
Файл
Качество: BDRip 720p
Видео: 1280x694 (1.85:1); 11.5 Mbps; 23.976 fps; 0.540 bpp
Аудио 1: Russian; AC3; 48.0 KHz; 6ch; 448 Kbps
Аудио 2: English; AC3; 48.0 KHz; 6ch; 640 Kbps
Format : Matroska
Format version : Version 2
File size : 9.91 GiB
Duration : 1h 52mn
Overall bit rate : 12.6 Mbps
Encoded date : UTC 2012-09-16 09:06:40
Writing application : mkvmerge v5.0.1 ('Es ist Sommer') built on Oct 9 2011 11:55:43
Writing library : libebml v1.2.2 + libmatroska v1.3.0

Video
ID : 1
Format : AVC
Format/Info : Advanced Video Codec
Format profile : High@L4.1
Format settings, CABAC : Yes
Format settings, ReFrames : 9 frames
Codec ID : V_MPEG4/ISO/AVC
Duration : 1h 52mn
Bit rate : 11.5 Mbps
Width : 1 280 pixels
Height : 694 pixels
Display aspect ratio : 1.85:1
Frame rate : 23.976 fps
Color space : YUV
Chroma subsampling : 4:2:0
Bit depth : 8 bits
Scan type : Progressive
Bits/(Pixel*Frame) : 0.540
Stream size : 8.85 GiB (89%)
Title : WarGames 1983
Writing library : x264 core 125 r2208 d9d2288
Encoding settings : cabac=1 / ref=9 / deblock=1:-3:-3 / analyse=0x3:0x113 / me=tesa / subme=11 / psy=1 / psy_rd=1.05:0.00 / mixed_ref=1 / me_range=16 / chroma_me=1 / trellis=2 / 8x8dct=1 / cqm=0 / deadzone=21,11 / fast_pskip=0 / chroma_qp_offset=-2 / threads=12 / lookahead_threads=2 / sliced_threads=0 / nr=0 / decimate=0 / interlaced=0 / bluray_compat=0 / constrained_intra=0 / bframes=11 / b_pyramid=2 / b_adapt=2 / b_bias=0 / direct=3 / weightb=1 / open_gop=0 / weightp=2 / keyint=250 / keyint_min=23 / scenecut=40 / intra_refresh=0 / rc=2pass / mbtree=0 / bitrate=11500 / ratetol=1.0 / qcomp=0.60 / qpmin=0 / qpmax=69 / qpstep=4 / cplxblur=20.0 / qblur=0.5 / ip_ratio=1.40 / pb_ratio=1.30 / aq=1:0.60
Language : English
Default : Yes
Forced : No

Audio #1
ID : 2
Format : AC-3
Format/Info : Audio Coding 3
Mode extension : CM (complete main)
Format settings, Endianness : Big
Codec ID : A_AC3
Duration : 1h 52mn
Bit rate mode : Constant
Bit rate : 448 Kbps
Channel(s) : 6 channels
Channel positions : Front: L C R, Side: L R, LFE
Sampling rate : 48.0 KHz
Bit depth : 16 bits
Compression mode : Lossy
Stream size : 361 MiB (4%)
Language : Russian
Default : Yes
Forced : No

Audio #2
ID : 3
Format : AC-3
Format/Info : Audio Coding 3
Mode extension : CM (complete main)
Format settings, Endianness : Big
Codec ID : A_AC3
Duration : 1h 52mn
Bit rate mode : Constant
Bit rate : 640 Kbps
Channel(s) : 6 channels
Channel positions : Front: L C R, Side: L R, LFE
Sampling rate : 48.0 KHz
Bit depth : 16 bits
Compression mode : Lossy
Stream size : 516 MiB (5%)
Language : English
Default : No
Forced : No

Text #1
ID : 4
Format : UTF-8
Codec ID : S_TEXT/UTF8
Codec ID/Info : UTF-8 Plain Text
Language : Russian
Default : No
Forced : No

Text #2
ID : 5
Format : UTF-8
Codec ID : S_TEXT/UTF8
Codec ID/Info : UTF-8 Plain Text
Language : English
Default : No
Forced : No

Text #3
ID : 6
Format : UTF-8
Codec ID : S_TEXT/UTF8
Codec ID/Info : UTF-8 Plain Text
Language : English
Default : No
Forced : No

Text #4
ID : 7
Format : UTF-8
Codec ID : S_TEXT/UTF8
Codec ID/Info : UTF-8 Plain Text
Language : French
Default : No
Forced : No
Text #5
ID : 8
Format : UTF-8
Codec ID : S_TEXT/UTF8
Codec ID/Info : UTF-8 Plain Text
Language : German
Default : No
Forced : No

Text #6
ID : 9
Format : UTF-8
Codec ID : S_TEXT/UTF8
Codec ID/Info : UTF-8 Plain Text
Language : Portuguese
Default : No
Forced : No

Text #7
ID : 10
Format : UTF-8
Codec ID : S_TEXT/UTF8
Codec ID/Info : UTF-8 Plain Text
Language : Spanish
Default : No
Forced : No

Menu
00:00:00.000 : en:00:00:00.000
00:06:25.885 : en:00:06:25.885
00:09:31.070 : en:00:09:31.070
00:12:10.813 : en:00:12:10.813
00:14:04.677 : en:00:14:04.677
00:17:32.009 : en:00:17:32.009
00:22:33.310 : en:00:22:33.310
00:23:20.357 : en:00:23:20.357
00:26:01.018 : en:00:26:01.018
00:30:57.439 : en:00:30:57.439
00:35:40.555 : en:00:35:40.555
00:41:29.028 : en:00:41:29.028
00:44:30.835 : en:00:44:30.835
00:46:30.579 : en:00:46:30.579
00:49:42.563 : en:00:49:42.563
00:51:01.225 : en:00:51:01.225
00:53:22.950 : en:00:53:22.950
00:56:02.609 : en:00:56:02.609
00:59:32.027 : en:00:59:32.027
01:03:12.580 : en:01:03:12.580
01:08:24.851 : en:01:08:24.851
01:15:30.025 : en:01:15:30.025
01:19:19.797 : en:01:19:19.797
01:21:17.039 : en:01:21:17.039
01:26:24.513 : en:01:26:24.513
01:30:04.899 : en:01:30:04.899
01:33:28.978 : en:01:33:28.978
01:38:56.013 : en:01:38:56.013
01:41:59.488 : en:01:41:59.488
01:44:05.239 : en:01:44:05.239
01:46:24.837 : en:01:46:24.837
01:49:38.655 : en:01:49:38.655



Скачать Военные.игры.WarGames.(Джон.Бэдэм).[1983.фантастика.триллер.BDRip].[720p].[MVO]+[Оригинал.Eng]+[Sub]x7.torrent без регистрации
Золото ЗОЛОТАЯ РАЗДАЧА! СКАЧАННОЕ НЕ ЗАСЧИТЫВАЕТСЯ! Золото
Дата: Зарегистрирован   [ Тип: внутренний ] Как тут cкачать?
MAGNET ссылка
MAGNET ссылка


Скачать .torrent

50 KB

Статус: проверено DHT
Скачан: торрент - 25 раз, раздача полностью - 0 раз
Размер: 9,91 GB
Оценка:  - (Голосов: 0)
Поблагодарили: 0
Поделиться ссылкой на эту раздачу с друзьями:
В контактеFacebookОдноклассникиTwitterLivejournalМой МирLiveinternet
 

 
Показать сообщения:    


Вы не можете начинать темы
Вы не можете отвечать на сообщения
Вы не можете редактировать свои сообщения
Вы не можете удалять свои сообщения
Вы не можете голосовать в опросах
Вы не можете прикреплять файлы к сообщениям
Вы можете скачивать файлы