Loading...
Error

Скачать Человек с бульвара Капуцинов (Алла Сурикова) [1987, комедия, мелодрама, музыкальный, вестерн, BDRip-HEVC] [1080p] [Оригинал Rus]x2+[Sub Rus, Eng]x2 торрент без регистрации

Статистика раздачи
Размер:  5,93 GB   |    Скачан:  14 раз
Сидов:  1  [  0 KB/s  ]  
 
 
 
Автор Сообщение

Marsianka

[] 

Информация о фильме
Название: Человек с бульвара Капуцинов
Год выхода: 1987
Жанр: комедия, мелодрама, музыкальный, вестерн
Режиссер: Алла Сурикова
В ролях: Андрей Миронов, Александра Яковлева, Михаил Боярский, Олег Табаков, Николай Караченцов, Игорь Кваша, Лев Дуров, Галина Польских, Наталья Крачковская, Наталья Фатеева, Спартак Мишулин, Альберт Филозов, Олег Анофриев, Михаил Светин, Леонид Ярмольник, Семён Фарада, Александр Павлов (I), Юрий Медведев, Борислав Брондуков, Борис Иванов (III), Александр Сластин, Юрий Думчев, Михаил Херхеулидзе, Антон Табаков, Валерий Лысенков, Анатолий Калмыков, Игорь Воробьёв, Александр Иншаков, Николай Астапов, Александр Малышев, Николай Сысоев, Сергей Микульский, Павел Абдалов, Александр Жизневский, Владимир Коровкин, Светлана Андропова, Евгений Кулешов, Юрий Шумило

О фильме:
В одном из ковбойских городков Дикого Запада с его традиционной стрельбой, сквернословием и мордобоем появляется тихий миссионер кино мистер Фёст. Неведомое прежде ковбоям «синема» до неузнаваемости меняет уклад их жизни, нравы и привычки. Правда, позднее благородный мистер Фёст будет изгнан недоброжелателями. Но обитатели городка уже никогда не смогут забыть, что на свете есть великое искусство — Кино…



Страна: СССР
Продолжительность: 01:37:47
Перевод: Не требуется

Файл
Кодек: HEVC x265 8bit
Качество: BDRip-HEVC 1080p
Видео: 1804x1080, 23.976 кадр/сек, 6309 Кбит/сек, (Main@L4.1@High) 8bit

Аудио1: Русская, AC3 448 Кбит/сек, 6 канала(ов),16bit 48,0 КГц
Аудио2: Русская, DTS-HD MA 1561 Кбит/сек, 6 канала(ов),16bit 48,0 КГц (ОТДЕЛЬНЫМ ФАЙЛОМ)
Субтитры: Русские, English
Навигация по главам: Есть
General
Unique ID : 197186310419939896763127741216851466829 (0x9458B3B55C6D58FAB977C77F97A79A4D)
Complete name : F:HEVCЧеловек с бульвара Капуцинов (1987)Человек с бульвара Капуцинов (1987) BDRip 1080p [HEVC].mkv
Format : Matroska
Format version : Version 4 / Version 2
File size : 4.62 GiB
Duration : 1 h 40 min
Overall bit rate : 6 610 kb/s
Movie name : rip_by_Cthulhu
Encoded date : UTC 2017-12-22 19:46:34
Writing application : mkvmerge v18.0.0 ('Apricity') 64-bit
Writing library : libebml v1.3.5 + libmatroska v1.4.8
Cover : Yes
Attachments : cover.jpg

Video
ID : 1
Format : HEVC
Format/Info : High Efficiency Video Coding
Format profile : Main@L4.1@High
Codec ID : V_MPEGH/ISO/HEVC
Duration : 1 h 37 min
Bit rate : 6 309 kb/s
Width : 1 804 pixels
Height : 1 080 pixels
Display aspect ratio : 16:9
Frame rate mode : Constant
Frame rate : 23.976 (24000/1001) FPS
Color space : YUV
Chroma subsampling : 4:2:0
Bit depth : 8 bits
Bits/(Pixel*Frame) : 0.135
Stream size : 4.31 GiB (93%)
Writing library : x265 2.6+8-fc0570b8d8f9:[Windows][GCC 7.1.0][64 bit] 8bit
Encoding settings : cpuid=1050111 / frame-threads=5 / numa-pools=4 / wpp / no-pmode / no-pme / no-psnr / no-ssim / log-level=3 / input-csp=1 / input-res=1804x1080 / interlace=0 / total-frames=0 / level-idc=41 / high-tier=1 / uhd-bd=0 / ref=4 / no-allow-non-conformance / no-repeat-headers / annexb / no-aud / no-hrd / info / hash=0 / no-temporal-layers / open-gop / min-keyint=24 / keyint=240 / gop-lookahead=0 / bframes=12 / b-adapt=2 / b-pyramid / bframe-bias=0 / rc-lookahead=40 / lookahead-slices=6 / scenecut=40 / no-intra-refresh / ctu=64 / min-cu-size=8 / no-rect / no-amp / max-tu-size=32 / tu-inter-depth=3 / tu-intra-depth=3 / limit-tu=0 / rdoq-level=0 / dynamic-rd=0.00 / no-ssim-rd / signhide / no-tskip / nr-intra=0 / nr-inter=0 / no-constrained-intra / no-strong-intra-smoothing / max-merge=3 / limit-refs=3 / no-limit-modes / me=2 / subme=6 / merange=57 / temporal-mvp / weightp / weightb / no-analyze-src-pics / deblock=-3:-3 / no-sao / no-sao-non-deblock / rd=3 / no-early-skip / rskip / no-fast-intra / no-tskip-fast / no-cu-lossless / no-b-intra / no-splitrd-skip / rdpenalty=0 / psy-rd=1.00 / psy-rdoq=0.00 / no-rd-refine / analysis-reuse-mode=0 / no-lossless / cbqpoffs=0 / crqpoffs=0 / rc=crf / crf=19.5 / qcomp=0.60 / qpstep=4 / stats-write=0 / stats-read=0 / vbv-maxrate=50000 / vbv-bufsize=50000 / vbv-init=0.9 / crf-max=30.0 / crf-min=0.0 / ipratio=1.40 / pbratio=1.30 / aq-mode=1 / aq-strength=0.80 / cutree / zone-count=0 / no-strict-cbr / qg-size=32 / no-rc-grain / qpmax=69 / qpmin=0 / no-const-vbv / sar=255 / sar-width / : / sar-height=149:140 / overscan=0 / videoformat=5 / range=0 / colorprim=1 / transfer=1 / colormatrix=1 / chromaloc=0 / display-window=0 / max-cll=0,0 / min-luma=0 / max-luma=255 / log2-max-poc-lsb=8 / vui-timing-info / vui-hrd-info / slices=1 / no-opt-qp-pps / no-opt-ref-list-length-pps / no-multi-pass-opt-rps / scenecut-bias=0.05 / no-opt-cu-delta-qp / no-aq-motion / no-hdr / no-hdr-opt / no-dhdr10-opt / analysis-reuse-level=5 / scale-factor=0 / refine-intra=0 / refine-inter=0 / refine-mv=0 / no-limit-sao / ctu-info=0 / no-lowpass-dct / refine-mv-type=0 / copy-pic=1
Language : Russian
Default : Yes
Forced : No
Color range : Limited
Color primaries : BT.709
Transfer characteristics : BT.709
Matrix coefficients : BT.709

Audio
ID : 2
Format : AC-3
Format/Info : Audio Coding 3
Format settings, Endianness : Big
Codec ID : A_AC3
Duration : 1 h 37 min
Bit rate mode : Constant
Bit rate : 448 kb/s
Channel(s) : 6 channels
Channel positions : Front: L C R, Side: L R, LFE
Sampling rate : 48.0 kHz
Frame rate : 31.250 FPS (1536 SPF)
Bit depth : 16 bits
Compression mode : Lossy
Stream size : 313 MiB (7%)
Language : Russian
Service kind : Complete Main
Default : No
Forced : No

Text #1
ID : 3
Format : UTF-8
Codec ID : S_TEXT/UTF8
Codec ID/Info : UTF-8 Plain Text
Duration : 1 h 36 min
Bit rate : 74 b/s
Count of elements : 971
Stream size : 52.7 KiB (0%)
Language : Russian
Default : No
Forced : No

Text #2
ID : 4
Format : UTF-8
Codec ID : S_TEXT/UTF8
Codec ID/Info : UTF-8 Plain Text
Duration : 1 h 39 min
Bit rate : 37 b/s
Count of elements : 968
Stream size : 27.6 KiB (0%)
Language : English
Default : No
Forced : No

Menu
00:00:00.000 : :Chapter 01
00:07:27.905 : :Chapter 02
00:13:55.960 : :Chapter 03
00:21:33.583 : :Chapter 04
00:32:58.101 : :Chapter 05
00:40:15.162 : :Chapter 06
00:48:34.703 : :Chapter 07
00:53:06.474 : :Chapter 08
01:04:16.477 : :Chapter 09
01:12:13.704 : :Chapter 10
01:19:41.234 : :Chapter 11
01:27:29.827 : :Chapter 12
Релиз от: Cthulhu



Скачать Человек.с.бульвара.Капуцинов.(Алла.Сурикова).[1987.комедия.мелодрама.музыкальный.вестерн.BDRip-HEVC].[1080p].[Оригинал.Rus]x2+[Sub.Rus.Eng]x2.torrent без регистрации
Золото ЗОЛОТАЯ РАЗДАЧА! СКАЧАННОЕ НЕ ЗАСЧИТЫВАЕТСЯ! Золото
Дата: Зарегистрирован   [ Тип: внутренний ] Как тут cкачать?
MAGNET ссылка
MAGNET ссылка


Скачать .torrent

31 KB

Статус: проверено DHT
Скачан: торрент - 14 раз, раздача полностью - 0 раз
Размер: 5,93 GB
Оценка:  - (Голосов: 0)
Поблагодарили: 0
Поделиться ссылкой на эту раздачу с друзьями:
В контактеFacebookОдноклассникиTwitterLivejournalМой МирLiveinternet
 

 
Показать сообщения:    


Вы не можете начинать темы
Вы не можете отвечать на сообщения
Вы не можете редактировать свои сообщения
Вы не можете удалять свои сообщения
Вы не можете голосовать в опросах
Вы не можете прикреплять файлы к сообщениям
Вы можете скачивать файлы