Loading...
Error

Скачать Эффект бабочки / The Butterfly Effect (Эрик Бресс, Дж. Макки Грубер) [2004, фантастика, триллер, драма, детектив, BDRip-HEVC] [1080p] [Театральная версия] [Dub]+[Оригинал Eng]+[Sub Rus, Eng]x2 торрент без регистрации

Статистика раздачи
Размер:  4,59 GB   |    Скачан:  17 раз
Сидов:  1  [  0 KB/s  ]  
 
 
 
Автор Сообщение

Marsianka

[] 

Информация о фильме
Название: Эффект бабочки
Оригинальное название: The Butterfly Effect
Год выхода: 2004
Жанр: фантастика, триллер, драма, детектив
Режиссер: Эрик Бресс, Дж. Макки Грубер
В ролях: Эштон Катчер, Эми Смарт, Мелора Уолтерс, Элден Хенсон, Уильям Ли Скотт, Джон Патрик Амедори, Ирен Горовая, Кевин Шмидт, Джесси Джеймс, Логан Лерман

О фильме:
Мальчик Эван перенял от своего отца-психопата, ныне запертого в доме для умалишённых, странную болезнь - он не помнит некоторых эпизодов своей жизни, причем в эти моменты происходили довольно странные, а то и ужасные, события. Возмужав и поступив в колледж, Эван делает удивительное открытие. Читая дневники, которые он писал в детстве по совету врача, Эван может возвращаться в детство и своими действиями изменять будущее.



Страна: США, Канада
Продолжительность: 01:53:31
Перевод: Профессиональный (дублированный)

Файл
Кодек: HEVC x265 10 bit
Качество: BDRip-HEVC 1080p
Видео: 1920x1080 (16:9), 4959 Кбит/сек, 0.100 бит/(Пиксели*Кадры), 23.976 (24000/1001) кадр/сек, HEVC (Main10@L.5.1@High) 10 бит

Русская, AC3, 384 kb/s, Front: L C R, Side: L R, LFE, 48.0 kHz (Дубляж)
Английская, AC3, 448 kb/s, Front: L C R, Side: L R, LFE, 48.0 kHz (Оригинал)
Субтитры: Русские, английские
Разделение по главам: есть
Семпл

General
Unique ID : 219929436108410094565239385765204433393 (0xA574DE60DA04A003AFFF7472B3BF99F1)
Complete name : H:HEVC 210 BITButterfly EffectThe Butterfly Effect_2004_[Thetrical Cut]_BDRip_1080p_[HEVC]_10bit.mkv
Format : Matroska
Format version : Version 4 / Version 2
File size : 4.59 GiB
Duration : 1 h 53 min
Overall bit rate : 5 794 kb/s
Encoded date : UTC 2017-12-23 14:26:26
Writing application : mkvmerge v18.0.0 ('Apricity') 64-bit
Writing library : libebml v1.3.5 + libmatroska v1.4.8
Cover : Yes
Attachments : cover.png

Video
ID : 1
Format : HEVC
Format/Info : High Efficiency Video Coding
Format profile : Main 10@L5.1@High
Codec ID : V_MPEGH/ISO/HEVC
Duration : 1 h 53 min
Bit rate : 4 959 kb/s
Width : 1 920 pixels
Height : 1 080 pixels
Display aspect ratio : 16:9
Frame rate mode : Constant
Frame rate : 23.976 (24000/1001) FPS
Original frame rate : 23.976 (23976/1000) FPS
Color space : YUV
Chroma subsampling : 4:2:0
Bit depth : 10 bits
Bits/(Pixel*Frame) : 0.100
Stream size : 3.93 GiB (86%)
Writing library : x265 2.5+20-0967d0add97e:[Windows][GCC 7.2.0][64 bit] 10bit
Encoding settings : cpuid=1173503 / frame-threads=4 / numa-pools=16 / wpp / no-pmode / no-pme / no-psnr / no-ssim / log-level=2 / input-csp=1 / input-res=1920x1080 / interlace=0 / total-frames=0 / level-idc=51 / high-tier=1 / uhd-bd=0 / ref=5 / no-allow-non-conformance / no-repeat-headers / annexb / no-aud / no-hrd / info / hash=0 / no-temporal-layers / open-gop / min-keyint=23 / keyint=240 / bframes=6 / b-adapt=2 / no-b-pyramid / bframe-bias=0 / rc-lookahead=40 / lookahead-slices=4 / scenecut=40 / no-intra-refresh / ctu=64 / min-cu-size=8 / no-rect / no-amp / max-tu-size=32 / tu-inter-depth=3 / tu-intra-depth=3 / limit-tu=4 / rdoq-level=2 / dynamic-rd=0.00 / no-ssim-rd / signhide / no-tskip / nr-intra=0 / nr-inter=0 / no-constrained-intra / no-strong-intra-smoothing / max-merge=2 / limit-refs=3 / no-limit-modes / me=3 / subme=7 / merange=57 / temporal-mvp / weightp / weightb / no-analyze-src-pics / no-deblock / sao / no-sao-non-deblock / rd=4 / no-early-skip / rskip / no-fast-intra / no-tskip-fast / no-cu-lossless / no-b-intra / no-splitrd-skip / rdpenalty=0 / psy-rd=2.00 / psy-rdoq=1.00 / no-rd-refine / analysis-reuse-mode=0 / no-lossless / cbqpoffs=0 / crqpoffs=0 / rc=crf / crf=19.0 / qcomp=0.60 / qpstep=4 / stats-write=0 / stats-read=0 / vbv-maxrate=160000 / vbv-bufsize=160000 / vbv-init=0.9 / crf-max=0.0 / crf-min=0.0 / ipratio=1.40 / pbratio=1.30 / aq-mode=1 / aq-strength=0.50 / cutree / zone-count=1 / zones: / start-frame=155234 / end-frame=163321 / qp=35 / no-strict-cbr / qg-size=32 / no-rc-grain / qpmax=51 / qpmin=0 / no-const-vbv / sar=0 / overscan=0 / videoformat=5 / range=0 / colorprim=2 / transfer=2 / colormatrix=1 / chromaloc=0 / display-window=0 / max-cll=0,0 / min-luma=0 / max-luma=1023 / log2-max-poc-lsb=8 / vui-timing-info / vui-hrd-info / slices=1 / opt-qp-pps / opt-ref-list-length-pps / no-multi-pass-opt-rps / scenecut-bias=0.05 / no-opt-cu-delta-qp / no-aq-motion / no-hdr / no-hdr-opt / no-dhdr10-opt / analysis-reuse-level=5 / scale-factor=0 / refine-intra=0 / refine-inter=0 / refine-mv=0 / no-limit-sao / ctu-info=0
Default : Yes
Forced : Yes
Color range : Limited
Matrix coefficients : BT.709

Audio #1
ID : 2
Format : AC-3
Format/Info : Audio Coding 3
Format settings, Endianness : Big
Codec ID : A_AC3
Duration : 1 h 53 min
Bit rate mode : Constant
Bit rate : 384 kb/s
Channel(s) : 6 channels
Channel positions : Front: L C R, Side: L R, LFE
Sampling rate : 48.0 kHz
Frame rate : 31.250 FPS (1536 SPF)
Bit depth : 16 bits
Compression mode : Lossy
Stream size : 312 MiB (7%)
Title : Дубляж (R5)
Language : Russian
Service kind : Complete Main
Default : Yes
Forced : No

Audio #2
ID : 3
Format : AC-3
Format/Info : Audio Coding 3
Format settings, Endianness : Big
Codec ID : A_AC3
Duration : 1 h 53 min
Bit rate mode : Constant
Bit rate : 448 kb/s
Channel(s) : 6 channels
Channel positions : Front: L C R, Side: L R, LFE
Sampling rate : 48.0 kHz
Frame rate : 31.250 FPS (1536 SPF)
Bit depth : 16 bits
Compression mode : Lossy
Stream size : 364 MiB (8%)
Title : Оригинал
Language : English
Service kind : Complete Main
Default : No
Forced : No

Text #1
ID : 4
Format : UTF-8
Codec ID : S_TEXT/UTF8
Codec ID/Info : UTF-8 Plain Text
Duration : 1 h 46 min
Bit rate : 86 b/s
Count of elements : 1431
Stream size : 67.5 KiB (0%)
Language : Russian
Default : Yes
Forced : No

Text #2
ID : 5
Format : UTF-8
Codec ID : S_TEXT/UTF8
Codec ID/Info : UTF-8 Plain Text
Duration : 1 h 46 min
Bit rate : 51 b/s
Count of elements : 1004
Stream size : 40.0 KiB (0%)
Language : English
Default : No
Forced : No

Menu
00:00:00.000 : :You have to see this
00:06:28.597 : :Secrets
00:11:16.676 : :Blackouts
00:16:50.009 : :Tommy's revenge
00:25:07.423 : :Memory research
00:31:40.482 : :Remembering
00:39:27.448 : :Kaylee
00:46:14.563 : :Rewind: Kaylee
00:57:49.966 : :A new life
01:04:58.770 : :Prisoner
01:14:49.443 : :Rewind: Lenny
01:23:12.529 : :You were happy once
01:28:50.951 : :Rewind: Evan
01:37:17.040 : :Destroy the blockbuster
01:43:09.141 : :Last attempt
01:47:55.761 : :End credits
Релиз от: от XuMuK



Скачать Эффект.бабочки.The.Butterfly.Effect.(Эрик.Бресс.Дж.Макки.Грубер).[2004.фантастика.триллер.драма.детектив.BDRip-HEVC].[1080p].[Театральная.версия].[Dub]+[Оригинал.Eng]+[Sub.Rus.Eng]x2.torrent без регистрации
Золото ЗОЛОТАЯ РАЗДАЧА! СКАЧАННОЕ НЕ ЗАСЧИТЫВАЕТСЯ! Золото
Дата: Зарегистрирован   [ Тип: внутренний ] Как тут cкачать?
MAGNET ссылка
MAGNET ссылка


Скачать .torrent

13 KB

Статус: проверено DHT
Скачан: торрент - 17 раз, раздача полностью - 2 раз
Размер: 4,59 GB
Оценка:  - (Голосов: 0)
Поблагодарили: 0
Поделиться ссылкой на эту раздачу с друзьями:
В контактеFacebookОдноклассникиTwitterLivejournalМой МирLiveinternet
 

 
Показать сообщения:    


Вы не можете начинать темы
Вы не можете отвечать на сообщения
Вы не можете редактировать свои сообщения
Вы не можете удалять свои сообщения
Вы не можете голосовать в опросах
Вы не можете прикреплять файлы к сообщениям
Вы можете скачивать файлы