Loading...
Error

Скачать Тайны «Ночного дозора» / Nightwatching (Питер Гринуэй) [2007, драма, детектив, биография, история, BDRemux] [1080i] [MVO]+[DVO]+[Оригинал Eng]+[Sub Rus, Eng]x2 торрент без регистрации

Статистика раздачи
Размер:  18,73 GB   |    Скачан:  32 раза
Сидов:  1  [  0 KB/s  ]  
 
 
 
Автор Сообщение

Marsianka

[] 

Название: Тайны «Ночного дозора»
Оригинальное название: Nightwatching
Год выхода: 2007
Жанр: драма, детектив, биография, история
Режиссер: Питер Гринуэй
В ролях: Мартин Фриман, Эмили Холмс, Майкл Тиган, Анна Антонович, Ева Берфистел, Кристофер Бриттон, Агата Бузек, Майкл Калкин, Гарри Феррье, Джонатан Холмс

О фильме:
Как идентифицировать убийцу среди стрелков роты капитана Франса Баннинга Кока и лейтенанта Виллема ван Рейтенбурга? Остросюжетная история расследования политического заговора и зловещего преступления с помощью одной из самых загадочных картин в мировом искусстве, шедевра Рембрандта «Ночной дозор». Какие события в жизни художника отразились на его полотнах пронзительной глубиной и неземным светом? Экстравагантный взгляд на жизнь и творчество гениального Рембрандта.



Страна: Великобритания, Польша, Канада, Нидерланды
Продолжительность: 02:15:25
Перевод: профессиональный (многоголосый), профессиональный (двухголосый)
Субтитры: русские, английские

Формат: MKV
Качество: BDRemux 1080i
Видео: MPEG-4 AVC / 15728 kbps / 1920x1080 / 25 fps

#1. Russian: Dolby Digital Audio / 5.1 / 48 kHz / 448 kbps - Многоголосый (R5)
#2. Russian: Dolby Digital Audio / 2.0 / 48 kHz / 448 kbps - Двухголосый (НТВ)
#3. English: DTS-HD Master Audio / 5.1 / 48 kHz / 3181 kbps - Оригинал
Format : Matroska
Format version : Version 2
File size : 18.7 GiB
Duration : 2 h 15 min
Overall bit rate mode : Variable
Overall bit rate : 19.8 Mb/s
Movie name : Nightwatching (2007) BDRemux 1080i
Encoded date : UTC 2017-12-24 19:48:05
Writing application : mkvmerge v4.9.1 ('Ich will') сборка от Jul 11 2011 23:53:15
Writing library : libebml v1.2.1 + libmatroska v1.1.1

Video
ID : 1
Format : AVC
Format/Info : Advanced Video Codec
Format profile : High@L4.1
Format settings, CABAC : Yes
Format settings, RefFrames : 3 frames
Format settings, GOP : M=3, N=12
Codec ID : V_MPEG4/ISO/AVC
Duration : 2 h 15 min
Bit rate mode : Variable
Maximum bit rate : 32.5 Mb/s
Width : 1 920 pixels
Height : 1 080 pixels
Display aspect ratio : 16:9
Frame rate mode : Constant
Frame rate : 25.000 FPS
Standard : NTSC
Color space : YUV
Chroma subsampling : 4:2:0
Bit depth : 8 bits
Scan type : MBAFF
Title : Тайны «Ночного дозора»
Language : English
Default : Yes
Forced : No
Color range : Limited
Color primaries : BT.709
Transfer characteristics : BT.709
Matrix coefficients : BT.709

Audio #1
ID : 2
Format : AC-3
Format/Info : Audio Coding 3
Format settings, Endianness : Big
Codec ID : A_AC3
Duration : 2 h 15 min
Bit rate mode : Constant
Bit rate : 448 kb/s
Channel(s) : 6 channels
Channel positions : Front: L C R, Side: L R, LFE
Sampling rate : 48.0 kHz
Frame rate : 31.250 FPS (1536 SPF)
Bit depth : 16 bits
Compression mode : Lossy
Stream size : 434 MiB (2%)
Title : Многоголосый (R5)
Language : Russian
Service kind : Complete Main
Default : Yes
Forced : No

Audio #2
ID : 3
Format : AC-3
Format/Info : Audio Coding 3
Format settings, Endianness : Big
Codec ID : A_AC3
Duration : 2 h 15 min
Bit rate mode : Constant
Bit rate : 448 kb/s
Channel(s) : 2 channels
Channel positions : Front: L R
Sampling rate : 48.0 kHz
Frame rate : 31.250 FPS (1536 SPF)
Bit depth : 16 bits
Compression mode : Lossy
Stream size : 434 MiB (2%)
Title : Двухголосый (НТВ)
Language : Russian
Service kind : Complete Main
Default : No
Forced : No

Audio #3
ID : 4
Format : DTS
Format/Info : Digital Theater Systems
Format profile : MA / Core
Mode : 16
Format settings, Endianness : Big
Codec ID : A_DTS
Duration : 2 h 15 min
Bit rate mode : Variable / Constant
Bit rate : Unknown / 768 kb/s
Channel(s) : 6 channels
Channel positions : Front: L C R, Side: L R, LFE
Sampling rate : 48.0 kHz
Frame rate : 93.750 FPS (512 SPF)
Bit depth : 24 bits
Compression mode : Lossless / Lossy
Title : Оригинал
Language : English
Default : No
Forced : No

Text #1
ID : 5
Format : UTF-8
Codec ID : S_TEXT/UTF8
Codec ID/Info : UTF-8 Plain Text
Language : Russian
Default : No
Forced : No

Text #2
ID : 6
Format : UTF-8
Codec ID : S_TEXT/UTF8
Codec ID/Info : UTF-8 Plain Text
Language : English
Default : No
Forced : No

Menu
00:00:00.000 : en:
00:09:38.520 : en:
00:21:31.200 : en:
00:31:27.840 : en:
00:40:01.920 : en:
00:53:36.960 : en:
01:03:05.240 : en:
01:10:45.600 : en:
01:18:36.000 : en:
01:36:29.520 : en:
01:49:55.200 : en:
02:02:09.600 : en:



Скачать Тайны.«Ночного.дозора».Nightwatching.(Питер.Гринуэй).[2007.драма.детектив.биография.история.BDRemux].[1080i].[MVO]+[DVO]+[Оригинал.Eng]+[Sub.Rus.Eng]x2.torrent без регистрации
Золото ЗОЛОТАЯ РАЗДАЧА! СКАЧАННОЕ НЕ ЗАСЧИТЫВАЕТСЯ! Золото
Дата: Зарегистрирован   [ Тип: внутренний ] Как тут cкачать?
MAGNET ссылка
MAGNET ссылка


Скачать .torrent

95 KB

Статус: проверено DHT
Скачан: торрент - 32 раз, раздача полностью - 0 раз
Размер: 18,73 GB
Оценка:  - (Голосов: 0)
Поблагодарили: 0
Поделиться ссылкой на эту раздачу с друзьями:
В контактеFacebookОдноклассникиTwitterLivejournalМой МирLiveinternet
 

 
Показать сообщения:    


Вы не можете начинать темы
Вы не можете отвечать на сообщения
Вы не можете редактировать свои сообщения
Вы не можете удалять свои сообщения
Вы не можете голосовать в опросах
Вы не можете прикреплять файлы к сообщениям
Вы можете скачивать файлы