Loading...
Error

Скачать Переломный момент / The Breaking Point (Майкл Кёртиц) [1950, фильм-нуар, триллер, драма, криминал, BDRemux] [1080р] [VO (В. Белов)]+[Оригинал Eng]+[Sub Eng]x2 торрент без регистрации

Статистика раздачи
Размер:  24,48 GB   |    Скачан:  32 раза

Полного источника не было: 23 минуты

 
 
 
Автор Сообщение

Marsianka

[] 

Информация о фильме
Название: Переломный момент
Оригинальное название: The Breaking Point
Год выхода: 1950
Жанр: фильм-нуар, триллер, драма, криминал
Режиссер: Майкл Кёртиц
В ролях: Джон Гарфилд, Патриция Нил, Филлис Такстер, Хуано Эрнандез, Уоллес Форд, Эдмон Райан, Ральф Думке, Гай Томаджан, Уильям Кэмпбелл, Шерри Джексон, Донна Джо Бойс, Виктор Сен Юнг, Джон Элвин, Питер Брокко, Мэри Кэрролл

Описнаие: Капитан рыболовецкого судна Гари Морган сдает свое судно напрокат. Из-за тяжелого материального положения он не особо осторожен в ведении бизнеса и не обращает внимание на тех, кому он сдает свое судно. Настоящие проблемы возникают тогда, когда Гари сдает лодку для транспортировки четырех человек, которые оказываются преступниками, сбежавшими после ограбления ипподрома.



Страна: США
Продолжительность: 01:37:37
Любительский (одноголосый закадровый) В. Белов
Субтитры: английские, английские SDH
Оригинальная аудиодорожка: английский
Файл
Качество: BDRemux 1080р
Видео: AVC / 1920x1080 / 16:9 / 23.976 fps / 35138 kbps / High@L4.1
Аудио 1: Rus: AC3 / 48.0 KHz / 2.0 / 192 kbps / VO / В. Белов
Аудио 2: Eng: FLAC / 48.0 KHz / 1.0 / 615 kbps / 24 bit
Общее
Уникальный идентификатор : 156625051115652934990373595278831426241 (0x75D4E339A77310BD66CCF0FFD0FA9AC1)
Полное имя : The.Breaking.Point.1950.Criterion.Collection.BDRemux.1080p.mkv
Формат : Matroska
Версия формата : Version 4 / Version 2
Размер файла : 24,5 Гбайт
Продолжительность : 1 ч. 37 м.
Режим общего битрейта : Переменный
Общий поток : 35,9 Мбит/сек
Название фильма : The.Breaking.Point.1950.Criterion.Collection.BDRemux.1080p-porvaliparus
Дата кодирования : UTC 2017-12-25 02:25:42
Программа кодирования : mkvmerge v19.0.0 ('Brave Captain') 64-bit
Библиотека кодирования : libebml v1.3.5 + libmatroska v1.4.8

Видео
Идентификатор : 1
Формат : AVC
Формат/Информация : Advanced Video Codec
Профиль формата : High@L4.1
Настройки формата : CABAC / 4 Ref Frames
Параметр CABAC формата : Да
Параметр RefFrames формата : 4 кадра
Идентификатор кодека : V_MPEG4/ISO/AVC
Продолжительность : 1 ч. 37 м.
Вид битрейта : Переменный
Битрейт : 35,1 Мбит/сек
Максимальный битрейт : 37,0 Мбит/сек
Ширина : 1920 пикселей
Высота : 1080 пикселей
Соотношение сторон : 16:9
Режим частоты кадров : Постоянный
Частота кадров : 23,976 (24000/1001) кадра/сек
Цветовое пространство : YUV
Субдискретизация насыщенности : 4:2:0
Битовая глубина : 8 бит
Тип развёртки : Прогрессивная
Бит/(Пиксели*Кадры) : 0.706
Размер потока : 23,9 Гбайт (98%)
Заголовок : The.Breaking.Point.1950.Criterion.Collection.BDRemux.1080p
Default : Да
Forced : Нет

Аудио #1
Идентификатор : 2
Формат : AC-3
Формат/Информация : Audio Coding 3
Идентификатор кодека : A_AC3
Продолжительность : 1 ч. 37 м.
Вид битрейта : Постоянный
Битрейт : 192 Кбит/сек
Каналы : 2 канала
Расположение каналов : Front: L R
Частота : 48,0 КГц
Частота кадров : 31,250 кадров/сек (1536 SPF)
Битовая глубина : 16 бит
Метод сжатия : С потерями
Размер потока : 134 Мбайт (1%)
Заголовок : VO [В. Белов]
Язык : Russian
Default : Да
Forced : Нет

Аудио #2
Идентификатор : 3
Формат : FLAC
Формат/Информация : Free Lossless Audio Codec
Идентификатор кодека : A_FLAC
Продолжительность : 1 ч. 37 м.
Вид битрейта : Переменный
Битрейт : 615 Кбит/сек
Каналы : 1 канал
Расположение каналов : Front: C
Частота : 48,0 КГц
Частота кадров : 11,719 кадров/сек (4096 SPF)
Битовая глубина : 24 бит
Размер потока : 429 Мбайт (2%)
Библиотека кодирования : libFLAC 1.2.1 (UTC 2007-09-17)
Язык : English
Default : Нет
Forced : Нет

Текст #1
Идентификатор : 4
Формат : UTF-8
Идентификатор кодека : S_TEXT/UTF8
Идентификатор кодека/Информация : UTF-8 Plain Text
Продолжительность : 1 ч. 35 м.
Битрейт : 77 бит/сек
ElementCount : 1450
Размер потока : 54,3 Кбайт (0%)
Язык : English
Default : Нет
Forced : Нет

Текст #2
Идентификатор : 5
Формат : UTF-8
Идентификатор кодека : S_TEXT/UTF8
Идентификатор кодека/Информация : UTF-8 Plain Text
Продолжительность : 1 ч. 35 м.
Битрейт : 80 бит/сек
ElementCount : 1528
Размер потока : 56,7 Кбайт (0%)
Заголовок : SDH
Язык : English
Default : Нет
Forced : Нет

Меню
00:00:00.000 : en:00:00:00.000
00:06:58.209 : en:00:06:58.209
00:10:11.528 : en:00:10:11.528
00:14:29.452 : en:00:14:29.452
00:19:57.780 : en:00:19:57.780
00:22:34.645 : en:00:22:34.645
00:31:09.701 : en:00:31:09.701
00:33:45.523 : en:00:33:45.523
00:38:18.880 : en:00:38:18.880
00:41:27.652 : en:00:41:27.652
00:46:45.803 : en:00:46:45.803
00:48:23.275 : en:00:48:23.275
00:51:42.266 : en:00:51:42.266
00:54:51.914 : en:00:54:51.914
00:57:19.227 : en:00:57:19.227
01:00:44.724 : en:01:00:44.724
01:03:29.973 : en:01:03:29.973
01:05:44.566 : en:01:05:44.566
01:10:08.913 : en:01:10:08.913
01:14:36.430 : en:01:14:36.430
01:17:52.877 : en:01:17:52.877
01:25:29.541 : en:01:25:29.541
01:31:28.692 : en:01:31:28.692



Скачать Переломный.момент.The.Breaking.Point.(Майкл.Кёртиц).[1950.фильм-нуар.триллер.драма.криминал.BDRemux].[1080р].[VO.(В.Белов)]+[Оригинал.Eng]+[Sub.Eng]x2.torrent без регистрации
Золото ЗОЛОТАЯ РАЗДАЧА! СКАЧАННОЕ НЕ ЗАСЧИТЫВАЕТСЯ! Золото
Дата: Зарегистрирован   [ Тип: внутренний ] Как тут cкачать?
MAGNET ссылка
MAGNET ссылка


Скачать .torrent

62 KB

Статус: проверено DHT
Скачан: торрент - 32 раз, раздача полностью - 0 раз
Размер: 24,48 GB
Оценка:  - (Голосов: 0)
Поблагодарили: 0
Поделиться ссылкой на эту раздачу с друзьями:
В контактеFacebookОдноклассникиTwitterLivejournalМой МирLiveinternet
 

 
Показать сообщения:    


Вы не можете начинать темы
Вы не можете отвечать на сообщения
Вы не можете редактировать свои сообщения
Вы не можете удалять свои сообщения
Вы не можете голосовать в опросах
Вы не можете прикреплять файлы к сообщениям
Вы можете скачивать файлы