Loading...
Error

Скачать Ведьмак / Wiedzmin (Марек Бродский) [2001, фэнтези, приключения, HDTV] [1080i] [DVO]x2+[VO]+[Оригинал]+[Sub Rus] торрент без регистрации

Статистика раздачи
Размер:  8,55 GB   |    Скачан:  26 раз
Сидов:  1  [  0 KB/s  ]  
 
 
 
Автор Сообщение

Marsianka

[] 

Информация о фильме
Название: Ведьмак
Оригинальное название: Wiedzmin
Год выхода: 2001
Жанр: фэнтези, приключения
Режиссер: Марек Бродский
В ролях: Михал Жебровский, Олаф Любашенко, Гражина Вольщак, Збигнев Замаховский, Марта Битнер, Мацей Козловский

Описание: В незапамятные времена, когда по земле бродили великаны и гномы, а коварные драконы похищали прекрасных принцесс, бесстрашные ведьмаки защищали мир от чудовищ, угрожавших людям.

Среди них был Геральт из Ривии, воспитанник мудрых друидов, поклявшийся помогать всем, кто оказался в беде, не вмешиваясь в мирские дела. Но кровавые монаршие распри и человеческая жестокость вынудили его встать на сторону маленького королевства Цинтра, которое пало жертвой расы сверхчеловеков, кровью и мечом завоевывающей соседние страны.

Теперь отважный Геральт должен обойти полсвета, чтобы разыскать похищенную королеву Цири, ибо только она может восстановить мир и порядок в родной Цинтре. Защищая правду и карая зло, отважный ведьмак тяжелым мечом и великой магией освободит родные земли от тени захватчиков и вернет обитателям древних земель долгожданный мир и покой.



Страна: Польша
Продолжительность: 02:09:08
Перевод 1: Профессиональный (двухголосый закадровый) West Multimedia
Перевод 2: Профессиональный (двухголосый закадровый) Cinema Prestige
Перевод 3: Студийный (одноголосый закадровый) Централ партнершип / Top Industry
Субтитры: русские
Оригинальная аудиодорожка: польская
Файл
Качество: HDTV 1080i
Видео: 1920x1080i (16:9), 25.000 fps, AVC, ~7757 kbps, 0.150 bits/pixel
Аудио 1: Русский, 48.0 KHz, AC3, 6 ch, 384 kbps - West Multimedia
Аудио 2: Русский, 48.0 KHz, AC3, 2 ch, 192 kbps - Cinema Prestige
Аудио 3: Русский, 48.0 KHz, AC3, 2 ch, 192 kbps - Централ партнершип / Top Industry
Аудио 4: Ukrainian, 48.0 KHz, AC3, 2 ch, 192 kbps - Компанія "Кіт"
Аудио 5: Polish, 48.0 KHz, AC3, 2 ch, 192 kbps
Аудио 6: Polish, 48.0 KHz, AC3, 6 ch, 384 kbps
General
Unique ID : 243396175296712807510804323922254549349 (0xB71C65F2C01700AA85A5FB1E91ECD165)
Complete name : Wiedzmin 2001 TVP HD 1080i.rus.ukr.pol.mkv
Format : Matroska
Format version : Version 4 / Version 2
File size : 8.55 GiB
Duration : 2h 9mn
Overall bit rate : 9 482 Kbps
Encoded date : UTC 2015-09-19 18:50:04
Writing application : mkvmerge v8.3.0 ('Over the Horizon') 64bit
Writing library : libebml v1.3.1 + libmatroska v1.4.2

Video
ID : 1
Format : AVC
Format/Info : Advanced Video Codec
Format profile : High@L4
Format settings, CABAC : Yes
Format settings, ReFrames : 4 frames
Codec ID : V_MPEG4/ISO/AVC
Duration : 2h 9mn
Bit rate : 7 757 Kbps
Width : 1 920 pixels
Height : 1 080 pixels
Display aspect ratio : 16:9
Frame rate mode : Constant
Frame rate : 25.000 fps
Color space : YUV
Chroma subsampling : 4:2:0
Bit depth : 8 bits
Scan type : Interlaced
Scan order : Top Field First
Bits/(Pixel*Frame) : 0.150
Stream size : 7.00 GiB (82%)
Language : Polish
Default : Yes
Forced : No
Color range : Limited
Color primaries : BT.709
Transfer characteristics : BT.709
Matrix coefficients : BT.709

Audio #1
ID : 2
Format : AC-3
Format/Info : Audio Coding 3
Mode extension : CM (complete main)
Format settings, Endianness : Big
Codec ID : A_AC3
Duration : 2h 9mn
Bit rate mode : Constant
Bit rate : 384 Kbps
Channel(s) : 6 channels
Channel positions : Front: L C R, Side: L R, LFE
Sampling rate : 48.0 KHz
Compression mode : Lossy
Stream size : 355 MiB (4%)
Title : West Multimedia
Language : Russian
Default : Yes
Forced : No

Audio #2
ID : 3
Format : AC-3
Format/Info : Audio Coding 3
Mode extension : CM (complete main)
Format settings, Endianness : Big
Codec ID : A_AC3
Duration : 2h 9mn
Bit rate mode : Constant
Bit rate : 192 Kbps
Channel(s) : 2 channels
Channel positions : Front: L R
Sampling rate : 48.0 KHz
Compression mode : Lossy
Stream size : 177 MiB (2%)
Title : Cinema Prestige
Language : Russian
Default : No
Forced : No

Audio #3
ID : 4
Format : AC-3
Format/Info : Audio Coding 3
Mode extension : CM (complete main)
Format settings, Endianness : Big
Codec ID : A_AC3
Duration : 2h 9mn
Bit rate mode : Constant
Bit rate : 192 Kbps
Channel(s) : 2 channels
Channel positions : Front: L R
Sampling rate : 48.0 KHz
Compression mode : Lossy
Stream size : 177 MiB (2%)
Title : Top Industry
Language : Russian
Default : No
Forced : No

Audio #4
ID : 5
Format : AC-3
Format/Info : Audio Coding 3
Mode extension : CM (complete main)
Format settings, Endianness : Big
Codec ID : A_AC3
Duration : 2h 9mn
Bit rate mode : Constant
Bit rate : 192 Kbps
Channel(s) : 2 channels
Channel positions : Front: L R
Sampling rate : 48.0 KHz
Compression mode : Lossy
Stream size : 177 MiB (2%)
Title : Компанія "Кіт"
Language : Ukrainian
Default : No
Forced : No

Audio #5
ID : 6
Format : AC-3
Format/Info : Audio Coding 3
Mode extension : CM (complete main)
Format settings, Endianness : Big
Codec ID : A_AC3
Duration : 2h 9mn
Bit rate mode : Constant
Bit rate : 192 Kbps
Channel(s) : 2 channels
Channel positions : Front: L R
Sampling rate : 48.0 KHz
Compression mode : Lossy
Stream size : 177 MiB (2%)
Title : 2 ch
Language : Polish
Default : No
Forced : No

Audio #6
ID : 7
Format : AC-3
Format/Info : Audio Coding 3
Mode extension : CM (complete main)
Format settings, Endianness : Big
Codec ID : A_AC3
Duration : 2h 9mn
Bit rate mode : Constant
Bit rate : 384 Kbps
Channel(s) : 6 channels
Channel positions : Front: L C R, Side: L R, LFE
Sampling rate : 48.0 KHz
Compression mode : Lossy
Stream size : 355 MiB (4%)
Title : 5.1 ch
Language : Polish
Default : No
Forced : No

Text
ID : 8
Format : UTF-8
Codec ID : S_TEXT/UTF8
Codec ID/Info : UTF-8 Plain Text
Language : Russian
Default : No
Forced : No



Скачать Ведьмак.Wiedzmin.(Марек.Бродский).[2001.фэнтези.приключения.HDTV].[1080i].[DVO]x2+[VO]+[Оригинал]+[Sub.Rus].torrent без регистрации
Золото ЗОЛОТАЯ РАЗДАЧА! СКАЧАННОЕ НЕ ЗАСЧИТЫВАЕТСЯ! Золото
Дата: Зарегистрирован   [ Тип: внутренний ] Как тут cкачать?
MAGNET ссылка
MAGNET ссылка


Скачать .torrent

44 KB

Статус: проверено DHT
Скачан: торрент - 26 раз, раздача полностью - 8 раз
Размер: 8,55 GB
Оценка:  - (Голосов: 0)
Поблагодарили: 0
Поделиться ссылкой на эту раздачу с друзьями:
В контактеFacebookОдноклассникиTwitterLivejournalМой МирLiveinternet
 

 
Показать сообщения:    


Вы не можете начинать темы
Вы не можете отвечать на сообщения
Вы не можете редактировать свои сообщения
Вы не можете удалять свои сообщения
Вы не можете голосовать в опросах
Вы не можете прикреплять файлы к сообщениям
Вы можете скачивать файлы