Loading...
Error

Скачать Обнаженная со скрипкой (Валентин Плучек, Виктор Рыжков) [1959, комедия, экранизация, фильм-спектакль, DVDRip] торрент без регистрации

Статистика раздачи
Размер:  745 MB   |    Скачан:  28 раз
Сидов:  1  [  0 KB/s  ]  
 
 
 
Автор Сообщение

Marsianka

[] 

Страна: СССР
Производство: Главная редакция литературно-драматических программ Гостелерадио СССР

Жанр: комедия, экранизация, фильм-спектакль
Год выпуска: 1959
Продолжительность: 02:48:50

Перевод: Не требуется
Cубтитры: нет
Оригинальная аудиодорожка: русский

Режиссер: Валентин Плучек, Виктор Рыжков

В ролях:
Георгий Менглет, Александр Денисов (II), Ольга Зверева, Нина Архипова, Владимир Ушаков, Галина Степанова, Валентина Токарская, Ольга Аросева, Анатолий Папанов, Георгий Иванов, Евгений Весник, Георгий Доре...
Об актёрах подробней

Описание:
Телеверсия спектакля Московского Театра сатиры. По одноименной комедии английского писателя Н. Кауарда.
Англия. 1950-е годы. Умер знаменитый художник Поль Сородэн. Его слуга Себастьян, которому Поль доверял, раскрывает перед родными и близкими умершего тайну: все картины Сородэна были написаны его любовницами и четырнадцатилетним сыном Себастьяна. По словам слуги, это был крестовый поход художника против лжи в искусстве.

Источник: DVD9 R5
Качество видео: DVDRip
Формат видео: AVI

Видео: 576х432 (4:3), 25 fps, XviD ~ 820 kbps avg, 0.132 bit/pixel
Аудио: 48 kHz, MP3 2.0, 128 kbps

Раздача от:

Общее
Полное имя : Obnazhennaya.so.skripkoy.1959.DVDRip-745_[New-team]_by_AVP_Studio.avi
Формат : AVI
Формат/Информация : Audio Video Interleave
Размер файла : 745 Мбайт
Продолжительность : 1 ч. 48 м.
Общий поток : 958 Кбит/сек
Программа кодирования : VirtualDubMod 1.5.10.3 | www.virtualdub-fr.org || (build 2550/release)
Библиотека кодирования : VirtualDubMod build 2550/release

Видео
Идентификатор : 0
Формат : MPEG-4 Visual
Профиль формата : Advanced Simple@L5
Настройки формата : BVOP1 / Custom Matrix
Параметр BVOP формата : 1
Параметр QPel формата : Нет
Параметр GMC формата : Без точки перехода
Параметр матрицы формата : Выборочная
Идентификатор кодека : XVID
Идентификатор кодека/Подсказка : XviD
Продолжительность : 1 ч. 48 м.
Битрейт : 820 Кбит/сек
Ширина : 576 пикселей
Высота : 432 пикселя
Соотношение сторон : 4:3
Частота кадров : 25,000 кадров/сек
Цветовое пространство : YUV
Субдискретизация насыщенности : 4:2:0
Битовая глубина : 8 бит
Тип развёртки : Прогрессивная
Метод сжатия : С потерями
Бит/(Пиксели*Кадры) : 0.132
Размер потока : 638 Мбайт (86%)
Библиотека кодирования : XviD 73

Аудио
Идентификатор : 1
Формат : MPEG Audio
Версия формата : Version 1
Профиль формата : Layer 3
Идентификатор кодека : 55
Идентификатор кодека/Подсказка : MP3
Продолжительность : 1 ч. 48 м.
Вид битрейта : Постоянный
Битрейт : 128 Кбит/сек
Каналы : 2 канала
Частота : 48,0 КГц
Частота кадров : 41,667 кадра/сек (1152 SPF)
Метод сжатия : С потерями
Размер потока : 99,6 Мбайт (13%)
Выравнивание : Соединение по промежуткам
Продолжительность промежутка : 40 мс. (1,00 видеокадр)
Время предзагрузки промежутка : 504 мс.
Библиотека кодирования : LAME3.99r
Настройки программы : -m s -V 4 -q 2 -lowpass 17 -b 128



Скачать Обнаженная.со.скрипкой.(Валентин.Плучек.Виктор.Рыжков).[1959.комедия.экранизация.фильм-спектакль.DVDRip].torrent без регистрации
Золото ЗОЛОТАЯ РАЗДАЧА! СКАЧАННОЕ НЕ ЗАСЧИТЫВАЕТСЯ! Золото
Дата: Зарегистрирован   [ Тип: внутренний ] Как тут cкачать?
MAGNET ссылка
MAGNET ссылка


Скачать .torrent

16 KB

Статус: проверено DHT
Скачан: торрент - 28 раз, раздача полностью - 1 раз
Размер: 745 MB
Оценка:  - (Голосов: 0)
Поблагодарили: 0
Поделиться ссылкой на эту раздачу с друзьями:
В контактеFacebookОдноклассникиTwitterLivejournalМой МирLiveinternet
 

 
Показать сообщения:    


Вы не можете начинать темы
Вы не можете отвечать на сообщения
Вы не можете редактировать свои сообщения
Вы не можете удалять свои сообщения
Вы не можете голосовать в опросах
Вы не можете прикреплять файлы к сообщениям
Вы можете скачивать файлы