Loading...
Error

Скачать Ноттинг Хилл / Notting Hill (Роджер Мичелл) [1999, комедия, мелодрама, драма, BDRip] [720р] [Dub]+[DVO]x2+[AVO]x2+[Оригинал Eng]+[Sub Rus, Eng]x2 торрент без регистрации

Статистика раздачи
Размер:  8,03 GB   |    Скачан:  23 раза
Сидов:  1  [  0 KB/s  ]  
 
 
 
Автор Сообщение

Marsianka

[] 

Название: Ноттинг Хилл
Оригинальное название: Notting Hill
Год выпуска: 1999
Жанр: комедия, мелодрама, драма
Выпущено: США, Великобритания, Bookshop Productions, Notting Hill Pictures, PolyGram Filmed Entertainment, Working Title Films
Режиссер: Роджер Мичелл
В ролях: Джулия Робертс, Хью Грант, Ричард МакКейб, Риз Айфэнс, Джеймс Дрейфус, Дилан Моран, Роджер Фрост, Генри Гудман, Джулиан Райнд-Татт, Лорелей Кинг, Джон Шрэпнел, Кларк Питерс, Артуро Венегас, Иоланда Васкес, Миша Бартон, Тим МакИннерни, Джина МакКи, Эмма Чэмберс, Хью Бонневилль, Дориан Лок, Санджив Бхаскар, Пол Чахиди, Мэттью Уиттл, Мелисса Уилсон, Эмма Бернард, Эмили Мортимер, Тони Арматрадинг, Септембер Бакли, Филип Маникам, Алек Болдуин

О фильме: Романтическая комедия рассказывает историю о скромном владельце книжного магазина в Ноттинг Хилл (один из районов Лондона), жизнь которого резко меняется после того, как однажды кинозвезда заходит к нему в магазинчик, чтобы купить путеводитель…



Качество: BDRip 720р
Размер: 8.03 ГБ
Продолжительность: 02:03:57

Видео: MPEG-4 AVC, 4520 Кбит/с, 1280х544
Аудио 1: русский, 48 kHz, AC3, 6 ch, 448 kbps avg, [Дублированный]
Аудио 2: русский, 48 kHz, AC3, 6 ch, 640 kbps avg, [Профессиональный двухголосый]
Аудио 3: русский, 48 kHz, AC3, 6 ch, 640 kbps avg, Юрий Живов [Авторский]

Внешние файлы
Аудио: русский, 48 kHz, DTS, 6 ch, 755 kbps avg, [Профессиональный двухголосый]
Аудио: русский, 48 kHz, DTS, 6 ch, 1510 kbps avg, Юрий Живов [Авторский]
Аудио: английский, 48 kHz, AC3, 6 ch, 640 kbps avg, [Оригинал]
Субтитры: русские
Субтитры: английские
Общее
Полное имя : E:VideoNotting.Hill.1999.x264.BDRip.720pNotting.Hill.1999.AVO.rus.Ю.Живов.dts
Формат : DTS
Формат/Информация : Digital Theater Systems
Размер файла : 1,31 Гбайт
Продолжительность : 2 ч. 3 м.
Режим общего битрейта : Постоянный
Общий поток : 1510 Кбит/сек

Аудио
Формат : DTS
Формат/Информация : Digital Theater Systems
Режим : 16
Параметр Endianness формата : Big
Продолжительность : 2 ч. 3 м.
Вид битрейта : Постоянный
Битрейт : 1510 Кбит/сек
Каналы : 6 каналов
Расположение каналов : Front: L C R, Side: L R, LFE
Частота : 48,0 КГц
Битовая глубина : 24 бит
Метод сжатия : С потерями
Размер потока : 1,31 Гбайт (100%)

Общее
Полное имя : E:VideoNotting.Hill.1999.x264.BDRip.720pNotting.Hill.1999.DVO.rus.dts
Формат : DTS
Формат/Информация : Digital Theater Systems
Размер файла : 669 Мбайт
Продолжительность : 2 ч. 3 м.
Режим общего битрейта : Постоянный
Общий поток : 755 Кбит/сек

Аудио
Формат : DTS
Формат/Информация : Digital Theater Systems
Режим : 16
Параметр Endianness формата : Big
Продолжительность : 2 ч. 3 м.
Вид битрейта : Постоянный
Битрейт : 755 Кбит/сек
Каналы : 6 каналов
Расположение каналов : Front: L C R, Side: L R, LFE
Частота : 48,0 КГц
Битовая глубина : 24 бит
Метод сжатия : С потерями
Размер потока : 669 Мбайт (100%)

Общее
Полное имя : E:VideoNotting.Hill.1999.x264.BDRip.720pNotting.Hill.1999.eng.srt
Размер файла : 131 Кбайт

Общее
Полное имя : E:VideoNotting.Hill.1999.x264.BDRip.720pNotting.Hill.1999.Original.eng.ac3
Формат : AC-3
Формат/Информация : Audio Coding 3
Размер файла : 567 Мбайт
Продолжительность : 2 ч. 3 м.
Режим общего битрейта : Постоянный
Общий поток : 640 Кбит/сек

Аудио
Формат : AC-3
Формат/Информация : Audio Coding 3
Расширение режима : CM (complete main)
Параметр Endianness формата : Big
Продолжительность : 2 ч. 3 м.
Вид битрейта : Постоянный
Битрейт : 640 Кбит/сек
Каналы : 6 каналов
Расположение каналов : Front: L C R, Side: L R, LFE
Частота : 48,0 КГц
Битовая глубина : 16 бит
Метод сжатия : С потерями
Размер потока : 567 Мбайт (100%)

Общее
Полное имя : E:VideoNotting.Hill.1999.x264.BDRip.720pNotting.Hill.1999.rus.srt
Размер файла : 126 Кбайт

Общее
Уникальный идентификатор : 251715886479102990356371412969655250272 (0xBD5EB7611008C9C796F6D6243D162D60)
Полное имя : E:VideoNotting.Hill.1999.x264.BDRip.720pNotting.Hill.1999.x264.BDRip.720p.mkv
Формат : Matroska
Версия формата : Version 4 / Version 2
Размер файла : 5,52 Гбайт
Продолжительность : 2 ч. 3 м.
Общий поток : 6375 Кбит/сек
Название фильма : Ноттинг Хилл / Notting Hill / 1999 / BDRip -- STarankov
Дата кодирования : UTC 2010-02-22 21:41:31
Программа кодирования : mkvmerge v5.9.0 ('On The Loose') built on Dec 9 2012 15:37:01
Библиотека кодирования : libebml v1.3.0 + libmatroska v1.4.0

Видео
Идентификатор : 1
Формат : AVC
Формат/Информация : Advanced Video Codec
Профиль формата : High@L4.1
Параметр CABAC формата : Да
Параметр ReFrames формата : 9 кадров
Идентификатор кодека : V_MPEG4/ISO/AVC
Продолжительность : 2 ч. 3 м.
Битрейт : 4520 Кбит/сек
Ширина : 1280 пикселей
Высота : 544 пикселя
Соотношение сторон : 2,35:1
Режим частоты кадров : Постоянный
Частота кадров : 23,976 кадра/сек
Цветовое пространство : YUV
Субдискретизация насыщенности : 4:2:0
Битовая глубина : 8 бит
Тип развёртки : Прогрессивная
Бит/(Пиксели*Кадры) : 0.271
Размер потока : 3,91 Гбайт (71%)
Библиотека кодирования : x264 core 130 r2273 b3065e6
Настройки программы : cabac=1 / ref=9 / deblock=1:-1:-1 / analyse=0x3:0x113 / me=umh / subme=9 / psy=1 / psy_rd=1.00:0.15 / mixed_ref=1 / me_range=24 / chroma_me=1 / trellis=2 / 8x8dct=1 / cqm=0 / deadzone=21,11 / fast_pskip=1 / chroma_qp_offset=-3 / threads=6 / lookahead_threads=1 / sliced_threads=0 / nr=0 / decimate=1 / interlaced=0 / bluray_compat=0 / constrained_intra=0 / bframes=8 / b_pyramid=2 / b_adapt=2 / b_bias=0 / direct=1 / weightb=0 / open_gop=0 / weightp=2 / keyint=230 / keyint_min=23 / scenecut=40 / intra_refresh=0 / rc=crf / mbtree=0 / crf=16.7 / qcomp=0.60 / qpmin=0 / qpmax=69 / qpstep=4 / ip_ratio=1.40 / pb_ratio=1.30 / aq=1:1.00
Язык : English
Default : Да
Forced : Нет

Аудио #1
Идентификатор : 2
Формат : AC-3
Формат/Информация : Audio Coding 3
Расширение режима : CM (complete main)
Параметр Endianness формата : Big
Идентификатор кодека : A_AC3
Продолжительность : 2 ч. 3 м.
Вид битрейта : Постоянный
Битрейт : 448 Кбит/сек
Каналы : 6 каналов
Расположение каналов : Front: L C R, Side: L R, LFE
Частота : 48,0 КГц
Битовая глубина : 16 бит
Метод сжатия : С потерями
Размер потока : 397 Мбайт (7%)
Заголовок : DUB
Язык : Russian
Default : Да
Forced : Нет

Аудио #2
Идентификатор : 3
Формат : AC-3
Формат/Информация : Audio Coding 3
Расширение режима : CM (complete main)
Параметр Endianness формата : Big
Идентификатор кодека : A_AC3
Продолжительность : 2 ч. 3 м.
Вид битрейта : Постоянный
Битрейт : 640 Кбит/сек
Каналы : 6 каналов
Расположение каналов : Front: L C R, Side: L R, LFE
Частота : 48,0 КГц
Битовая глубина : 16 бит
Метод сжатия : С потерями
Размер потока : 567 Мбайт (10%)
Заголовок : DVO
Язык : Russian
Default : Нет
Forced : Нет

Аудио #3
Идентификатор : 4
Формат : AC-3
Формат/Информация : Audio Coding 3
Расширение режима : CM (complete main)
Параметр Endianness формата : Big
Идентификатор кодека : A_AC3
Продолжительность : 2 ч. 3 м.
Вид битрейта : Постоянный
Битрейт : 640 Кбит/сек
Каналы : 6 каналов
Расположение каналов : Front: L C R, Side: L R, LFE
Частота : 48,0 КГц
Битовая глубина : 16 бит
Метод сжатия : С потерями
Размер потока : 567 Мбайт (10%)
Заголовок : AVO (Юрий Живов)
Язык : Russian
Default : Нет
Forced : Нет



Скачать Ноттинг.Хилл.Notting.Hill.(Роджер.Мичелл).[1999.комедия.мелодрама.драма.BDRip].[720р].[Dub]+[DVO]x2+[AVO]x2+[Оригинал.Eng]+[Sub.Rus.Eng]x2.torrent без регистрации
Золото ЗОЛОТАЯ РАЗДАЧА! СКАЧАННОЕ НЕ ЗАСЧИТЫВАЕТСЯ! Золото
Дата: Зарегистрирован   [ Тип: внутренний ] Как тут cкачать?
MAGNET ссылка
MAGNET ссылка


Скачать .torrent

21 KB

Статус: проверено DHT
Скачан: торрент - 23 раз, раздача полностью - 0 раз
Размер: 8,03 GB
Оценка:  - (Голосов: 0)
Поблагодарили: 0
Поделиться ссылкой на эту раздачу с друзьями:
В контактеFacebookОдноклассникиTwitterLivejournalМой МирLiveinternet
 

 
Показать сообщения:    


Вы не можете начинать темы
Вы не можете отвечать на сообщения
Вы не можете редактировать свои сообщения
Вы не можете удалять свои сообщения
Вы не можете голосовать в опросах
Вы не можете прикреплять файлы к сообщениям
Вы можете скачивать файлы