Loading...
Error

Скачать Зловещий Эд / Evil Ed (Андерс Якобссон) [1995, ужасы, комедия, BDRemux] [1080р] [AVO]x4+[VO]+[Оригинал Eng]+[Sub Rus, Eng]x2 торрент без регистрации

Статистика раздачи
Размер:  27,6 GB   |    Скачан:  18 раз
Сидов:  1  [  0 KB/s  ]  
 
 
 
Автор Сообщение

Marsianka

[] 

Информация о фильме
Название: Зловещий Эд
Оригинальное название: Evil Ed
Год выхода: 1995
Жанр: ужасы, комедия
Режиссер: Андерс Якобссон
В ролях: Йохан Рудебек, Пер Лефберг, Олоф Родин, Герт Филкинг, Камела Льерт, Андерс Эк

Описание: Продюсер фильмов ужасов приглашает в свою студию скромного специалиста по монтажу Эда для того, чтобы тот отредактировал для показа несколько его картин из серии «Потерянные конечности». Предыдущий работник, занимавшийся этим делом, покончил жизнь самоубийством. Эду необходимо вырезать наиболее кровавые и жестокие эпизоды. Но тот сходит с ума от обилия крови, извращений и насилия, и сам начинает «мочить» всех подряд самыми изысканными способами…



Страна: Швеция
Продолжительность: 01:38:49
Перевод 1: Авторский (одноголосый, закадровый) Василий Горчаков
Перевод 2: Авторский (одноголосый, закадровый) Cергей Визгунов
Перевод 3: Авторский (одноголосый, закадровый) Петр Карцев (Со вставками перевода Тимофеева)
Перевод 4: Авторский (одноголосый, закадровый) Владимир Сонькин
Перевод 5: Любительский (одноголосый, закадровый) Тимофеев
Субтитры: русские форсированные, английские SDH
Оригинальная аудиодорожка: английский
Файл
Качество: BDRemux 1080р
Видео: 1920x1080 / MPEG-4 AVC Video / 33665 kbps / 1080p / 23,976 fps / 16:9 / High Profile 4.1
Аудио 1: Русский, AC3 2.0 224 Kbps 48,0 КГц (Gorchakov)
Аудио 2: Русский, AC3 2.0 224 Kbps 48,0 КГц (Vizgunov)
Аудио 3: Русский, AC3 2.0 224 Kbps 48,0 КГц (Kartsev)
Аудио 4: Русский, AC3 2.0 224 Kbps 48,0 КГц (Sonkin)
Аудио 5: Русский, AC3 2.0 224 Kbps 48,0 КГц (Timofeev)
Аудио 6: English, DTS-HD Master Audio / 5.1 / 48 kHz / 3842 kbps / 24-bit (DTS Core: 5.1 / 48 kHz / 768 kbps / 24-bit) (Original)
Аудио 7: English, FLAC 2.0 ~1350 Kbps (Original)
Общее
Уникальный идентификатор : 203735582693341500397923527509950951455 (0x99460BC306F63F07980645CCF681701F)
Полное имя : Evil.Ed.1995.BDRemux.1080p.5xRus.Eng.mkv
Формат : Matroska
Версия формата : Version 4 / Version 2
Размер файла : 27,6 Гбайт
Продолжительность : 1 ч. 38 м.
Режим общего битрейта : Переменный
Общий поток : 40,0 Мбит/сек
Название фильма : Evil Ed
Дата кодирования : UTC 2017-11-10 07:12:59
Программа кодирования : mkvmerge v9.8.0 ('Kuglblids') 32bit
Библиотека кодирования : libebml v1.3.4 + libmatroska v1.4.5

Видео
Идентификатор : 1
Формат : AVC
Формат/Информация : Advanced Video Codec
Профиль формата : High@L4.1
Параметр CABAC формата : Да
Параметр ReFrames формата : 3 кадра
Идентификатор кодека : V_MPEG4/ISO/AVC
Продолжительность : 1 ч. 38 м.
Вид битрейта : Переменный
Битрейт : 35,0 Мбит/сек
Максимальный битрейт : 38,0 Мбит/сек
Ширина : 1920 пикселей
Высота : 1080 пикселей
Соотношение сторон : 16:9
Режим частоты кадров : Постоянный
Частота кадров : 23,976 (24000/1001) кадра/сек
Цветовое пространство : YUV
Субдискретизация насыщенности : 4:2:0
Битовая глубина : 8 бит
Тип развёртки : Прогрессивная
Бит/(Пиксели*Кадры) : 0.704
Размер потока : 23,2 Гбайт (84%)
Заголовок : Evil Ed 1995 1080p GBR Special Edition Blu-ray AVC DTS-HD MA 5.1-ESiR
Библиотека кодирования : x264 core 148 r2705 3f5ed56
Настройки программы : cabac=1 / ref=4 / deblock=0:-1:-1 / analyse=0x3:0x113 / me=umh / subme=8 / psy=1 /
psy_rd=1.00:0.15 / mixed_ref=1 / me_range=16 / chroma_me=1 / trellis=1 / 8x8dct=1 / cqm=0 / deadzone=21,11 / fast_pskip=1 /
chroma_qp_offset=-3 / threads=12 / lookahead_threads=2 / sliced_threads=0 / slices=4 / nr=0 / decimate=1 / interlaced=0 /
bluray_compat=1 / constrained_intra=0 / bframes=3 / b_pyramid=1 / b_adapt=2 / b_bias=0 / direct=3 / weightb=1 / open_gop=1 /
weightp=1 / keyint=24 / keyint_min=1 / scenecut=40 / intra_refresh=0 / rc_lookahead=24 / rc=abr / mbtree=0 / bitrate=35000 /
ratetol=1.0 / qcomp=0.30 / qpmin=0 / qpmax=69 / qpstep=4 / vbv_maxrate=38000 / vbv_bufsize=28500 / nal_hrd=vbr / filler=0 /
ip_ratio=1.40 / pb_ratio=1.30 / aq=1:0.80
Default : Нет
Forced : Нет
Цветовой диапазон : Limited
Основные цвета : BT.709
Характеристики трансфера : BT.709
Коэффициенты матрицы : BT.709

Аудио #1
Идентификатор : 2
Формат : AC-3
Формат/Информация : Audio Coding 3
Расширение режима : CM (complete main)
Параметр Endianness формата : Big
Идентификатор кодека : A_AC3
Продолжительность : 1 ч. 38 м.
Вид битрейта : Постоянный
Битрейт : 224 Кбит/сек
Каналы : 2 канала
Расположение каналов : Front: L R
Частота : 48,0 КГц
Частота кадров : 31,250 кадров/сек (1536 spf)
Битовая глубина : 16 бит
Метод сжатия : С потерями
Размер потока : 158 Мбайт (1%)
Заголовок : Gorchakov AC3 2.0 224 kbps
Язык : Russian
Default : Нет
Forced : Нет

Аудио #2
Идентификатор : 3
Формат : AC-3
Формат/Информация : Audio Coding 3
Расширение режима : CM (complete main)
Параметр Endianness формата : Big
Идентификатор кодека : A_AC3
Продолжительность : 1 ч. 38 м.
Вид битрейта : Постоянный
Битрейт : 224 Кбит/сек
Каналы : 2 канала
Расположение каналов : Front: L R
Частота : 48,0 КГц
Частота кадров : 31,250 кадров/сек (1536 spf)
Битовая глубина : 16 бит
Метод сжатия : С потерями
Размер потока : 158 Мбайт (1%)
Заголовок : Vizgunov AC3 2.0 224 kbps
Язык : Russian
Default : Нет
Forced : Нет

Аудио #3
Идентификатор : 4
Формат : AC-3
Формат/Информация : Audio Coding 3
Расширение режима : CM (complete main)
Параметр Endianness формата : Big
Идентификатор кодека : A_AC3
Продолжительность : 1 ч. 38 м.
Вид битрейта : Постоянный
Битрейт : 224 Кбит/сек
Каналы : 2 канала
Расположение каналов : Front: L R
Частота : 48,0 КГц
Частота кадров : 31,250 кадров/сек (1536 spf)
Битовая глубина : 16 бит
Метод сжатия : С потерями
Размер потока : 158 Мбайт (1%)
Заголовок : Kartsev AC3 2.0 224 kbps
Язык : Russian
Default : Нет
Forced : Нет

Аудио #4
Идентификатор : 5
Формат : AC-3
Формат/Информация : Audio Coding 3
Расширение режима : CM (complete main)
Параметр Endianness формата : Big
Идентификатор кодека : A_AC3
Продолжительность : 1 ч. 38 м.
Вид битрейта : Постоянный
Битрейт : 224 Кбит/сек
Каналы : 2 канала
Расположение каналов : Front: L R
Частота : 48,0 КГц
Частота кадров : 31,250 кадров/сек (1536 spf)
Битовая глубина : 16 бит
Метод сжатия : С потерями
Размер потока : 158 Мбайт (1%)
Заголовок : Sonkin AC3 2.0 224 kbps
Язык : Russian
Default : Нет
Forced : Нет

Аудио #5
Идентификатор : 6
Формат : AC-3
Формат/Информация : Audio Coding 3
Расширение режима : CM (complete main)
Параметр Endianness формата : Big
Идентификатор кодека : A_AC3
Продолжительность : 1 ч. 38 м.
Вид битрейта : Постоянный
Битрейт : 224 Кбит/сек
Каналы : 2 канала
Расположение каналов : Front: L R
Частота : 48,0 КГц
Частота кадров : 31,250 кадров/сек (1536 spf)
Битовая глубина : 16 бит
Метод сжатия : С потерями
Размер потока : 158 Мбайт (1%)
Заголовок : Timofeev AC3 2.0 224 kbps
Язык : Russian
Default : Нет
Forced : Нет

Аудио #6
Идентификатор : 7
Формат : DTS
Формат/Информация : Digital Theater Systems
Профиль формата : MA / Core
Режим : 16
Параметр Endianness формата : Big
Идентификатор кодека : A_DTS
Продолжительность : 1 ч. 38 м.
Вид битрейта : Переменный / Постоянный
Битрейт : 3840 Кбит/сек / 768 Кбит/сек
Каналы : 6 каналов
Расположение каналов : Front: L C R, Side: L R, LFE
Частота : 48,0 КГц
Частота кадров : 93,750 кадра/сек (512 spf)
Битовая глубина : 24 бит
Метод сжатия : Без потерь / Lossy
Размер потока : 2,65 Гбайт (10%)
Заголовок : Original DTS-HD MA 5.1 3842 kbps
Язык : English
Default : Нет
Forced : Нет

Аудио #7
Идентификатор : 8
Формат : FLAC
Формат/Информация : Free Lossless Audio Codec
Идентификатор кодека : A_FLAC
Продолжительность : 1 ч. 38 м.
Вид битрейта : Переменный
Битрейт : 1350 Кбит/сек
Каналы : 2 канала
Расположение каналов : Front: L R
Частота : 48,0 КГц
Частота кадров : 11,719 кадров/сек (4096 spf)
Битовая глубина : 24 бит
Размер потока : 955 Мбайт (3%)
Заголовок : Original FLAC 2.0 ~1350 kbps
Библиотека кодирования : libFLAC 1.2.1 (UTC 2007-09-17)
Язык : English
Default : Нет
Forced : Нет

Текст #1
Идентификатор : 9
Формат : UTF-8
Идентификатор кодека : S_TEXT/UTF8
Идентификатор кодека/Информация : UTF-8 Plain Text
Продолжительность : 37 м. 48 с.
Битрейт : 15 бит/сек
Count of elements : 94
Размер потока : 4,29 Кбайт (0%)
Заголовок : Forced
Язык : Russian
Default : Да
Forced : Да

Текст #2
Идентификатор : 10
Формат : UTF-8
Идентификатор кодека : S_TEXT/UTF8
Идентификатор кодека/Информация : UTF-8 Plain Text
Продолжительность : 1 ч. 38 м.
Битрейт : 32 бит/сек
Count of elements : 896
Размер потока : 23,2 Кбайт (0%)
Заголовок : SDH
Язык : English
Default : Нет
Forced : Нет

Меню
00:00:00.000 : en:00:00:00.000
00:08:05.694 : en:00:08:05.694
00:17:00.853 : en:00:17:00.853
00:24:29.301 : en:00:24:29.301
00:32:51.303 : en:00:32:51.303
00:42:17.076 : en:00:42:17.076
00:49:15.995 : en:00:49:15.995
00:57:01.043 : en:00:57:01.043
01:05:22.293 : en:01:05:22.293
01:11:11.142 : en:01:11:11.142
01:18:11.729 : en:01:18:11.729
01:25:29.416 : en:01:25:29.416



Скачать Зловещий.Эд.Evil.Ed.(Андерс.Якобссон).[1995.ужасы.комедия.BDRemux].[1080р].[AVO]x4+[VO]+[Оригинал.Eng]+[Sub.Rus.Eng]x2.torrent без регистрации
Золото ЗОЛОТАЯ РАЗДАЧА! СКАЧАННОЕ НЕ ЗАСЧИТЫВАЕТСЯ! Золото
Дата: Зарегистрирован   [ Тип: внутренний ] Как тут cкачать?
MAGNET ссылка
MAGNET ссылка


Скачать .torrent

139 KB

Статус: проверено DHT
Скачан: торрент - 18 раз, раздача полностью - 0 раз
Размер: 27,6 GB
Оценка:  - (Голосов: 0)
Поблагодарили: 0
Поделиться ссылкой на эту раздачу с друзьями:
В контактеFacebookОдноклассникиTwitterLivejournalМой МирLiveinternet
 

 
Показать сообщения:    


Вы не можете начинать темы
Вы не можете отвечать на сообщения
Вы не можете редактировать свои сообщения
Вы не можете удалять свои сообщения
Вы не можете голосовать в опросах
Вы не можете прикреплять файлы к сообщениям
Вы можете скачивать файлы