Loading...
Error

Скачать Убить за лайк / Tragedy Girls (Тайлер МакИнтайр) [2017 г., ужасы, комедия, WEB-DL] [1080p] [Dub (лицензия iTunes)] торрент без регистрации

Статистика раздачи
Размер:  3,39 GB   |    Скачан:  90 раз
Сидов:  4  [  0 KB/s  ]  
 
 
 
Автор Сообщение

МихаНЕзатор

[] 

Информация о фильме
Название: Убить за лайк
Оригинальное название: Tragedy Girls
Год выхода: 2017
Жанр: Комедия, ужасы
Режиссер: Тайлер МакИнтайр

В ролях: Джош Хатчерсон, Брианна Хилдебранд, Кевин Дюран, Никки Уилан, Крэйг Робинсон, Александра Шипп, Розалинд Чао, Джек Куэйд, Остин Абрамс, Тимоти В. Мерфи

О фильме: Две девушки-старшеклассницы из американской глубинки одержимы темой смерти и ведут соответствующее их интересам онлайн-шоу. В центре внимания их видео-блога находятся реальные кровавые трагедии и особо выдающиеся несчастные случаи. Вскоре их шоу становятся невероятно популярным, как и сами девушки, молва о которых выходит за пределы их маленького городка. Однако вскоре у новоиспеченных звезд заканчивается материал для шоу, и они решают действовать самостоятельно.



Страна: США
Студия: It's The Comeback Kids, New Artist Pictures
Продолжительность: 01:38:12
Перевод: Дублированный | iTunes

Файл
Качество: WEB-DL 1080p
Видео: MPEG-4 AVC, 1920x802, 4559 Кbit/s, 24.000 fps
Звук: 48 kHz, AC3, 5.1, 384 Kbps | Дублированный | iTunes | RUS |

АНОНСЫ ПОПУЛЯРНЫХ РАЗДАЧ
General
Unique ID : 334558195192069151168225800931909167111 (0xFBB1908B554B28A780DC34319F65E807)
Complete name : G:VideoSSDTragedy.Girls.2017,WEB-DL.1080p.ExKinoRay.mkv
Format : Matroska
Format version : Version 4 / Version 2
File size : 3.39 GiB
Duration : 1 h 38 min
Overall bit rate : 4 944 kb/s
Movie name : Tragedy Girls 2017 from ExKinoRay
Encoded date : UTC 2018-01-04 23:06:43
Writing application : mkvmerge v19.0.0 ('Brave Captain') 64-bit
Writing library : libebml v1.3.5 + libmatroska v1.4.8

Video
ID : 1
Format : AVC
Format/Info : Advanced Video Codec
Format profile : High@L4
Format settings : CABAC / 5 Ref Frames
Format settings, CABAC : Yes
Format settings, ReFrames : 5 frames
Codec ID : V_MPEG4/ISO/AVC
Duration : 1 h 38 min
Bit rate : 4 559 kb/s
Width : 1 920 pixels
Height : 802 pixels
Display aspect ratio : 2.40:1
Frame rate mode : Constant
Frame rate : 24.000 FPS
Color space : YUV
Chroma subsampling : 4:2:0
Bit depth : 8 bits
Scan type : Progressive
Bits/(Pixel*Frame) : 0.123
Stream size : 3.13 GiB (92%)
Language : English
Default : Yes
Forced : No
Color range : Limited
Color primaries : BT.709
Transfer characteristics : BT.709
Matrix coefficients : BT.709

Audio
ID : 2
Format : AC-3
Format/Info : Audio Coding 3
Codec ID : A_AC3
Duration : 1 h 38 min
Bit rate mode : Constant
Bit rate : 384 kb/s
Channel(s) : 6 channels
Channel positions : Front: L C R, Side: L R, LFE
Sampling rate : 48.0 kHz
Frame rate : 31.250 FPS (1536 SPF)
Bit depth : 16 bits
Compression mode : Lossy
Stream size : 270 MiB (8%)
Title : iTunes
Language : Russian
Service kind : Complete Main
Default : Yes
Forced : No

Menu
00:00:00.000 : en:Глава 1
00:04:01.708 : en:Глава 2
00:08:59.124 : en:Глава 3
00:15:19.915 : en:Глава 4
00:19:53.831 : en:Глава 5
00:26:27.122 : en:Глава 6
00:32:56.913 : en:Глава 7
00:38:53.704 : en:Глава 8
00:43:38.995 : en:Глава 9
00:49:49.661 : en:Глава 10
00:55:57.786 : en:Глава 11
01:01:45.369 : en:Глава 12
01:08:23.119 : en:Глава 13
01:12:57.202 : en:Глава 14
01:19:46.743 : en:Глава 15
01:25:46.534 : en:Глава 16



Скачать Убить.за.лайк.Tragedy.Girls.(Тайлер.МакИнтайр).[2017.г.ужасы.комедия.WEB-DL].[1080p].[Dub.(лицензия.iTunes)].torrent без регистрации
Золото ЗОЛОТАЯ РАЗДАЧА! СКАЧАННОЕ НЕ ЗАСЧИТЫВАЕТСЯ! Золото
Дата: Зарегистрирован   [ Тип: внешний ] Как тут cкачать?
MAGNET ссылка
MAGNET ссылка


Скачать .torrent

18 KB

Статус: проверено DHT
Скачан: торрент - 90 раз, раздача полностью - 89 раз
Размер: 3,39 GB
Оценка:  - (Голосов: 0)
Поблагодарили: 2
Поделиться ссылкой на эту раздачу с друзьями:
В контактеFacebookОдноклассникиTwitterLivejournalМой МирLiveinternet
 

 
Показать сообщения:    


Вы не можете начинать темы
Вы не можете отвечать на сообщения
Вы не можете редактировать свои сообщения
Вы не можете удалять свои сообщения
Вы не можете голосовать в опросах
Вы не можете прикреплять файлы к сообщениям
Вы можете скачивать файлы