Loading...
Error

Скачать Токийский гуль / Tokyo guru / Tokyo Ghoul (Кэнтаро Хагивара) [2017, ужасы, боевик, триллер, драма, BDRip] [720p] [DVO (Симбад, Oriko)]+[VO (Overlord)]+[Jap]+[Sub Rus, Chi] торрент без регистрации

Статистика раздачи
Размер:  4,69 GB   |    Скачан:  101 раз
Сидов:  8  [  6 KB/s  ]   Личеров:  1  [  0 KB/s  ]  
 
 
 
Автор Сообщение

МихаНЕзатор

[] 

Информация о фильме
Название: Токийский гуль
Оригинальное название: Tokyo guru / Tokyo Ghoul
Год выхода: 2017
Жанр: ужасы, боевик, триллер, драма
Режиссер: Кэнтаро Хагивара

В ролях: Масатака Кубота, Фумика Симидзу, Нобуюки Судзуки, Хиёри Сакурада, Ю Аои, Ё Ойзуми, Сёко Аида, Миносукэ Бандо, Данкан, Сэйка Фурухата, Кэнта Хамано, Нодзоми Сасаки (I)

О фильме: Современные люди, особенно, жители мегаполисов слегка позабыли о том, что они обитают в этой реальности не одни. С давних времен среди людей живут могущественные создания – гули, которые внешне практически неотличимы от них. Они сильны, быстры, живучи и кровожадны, что делает из них идеальных охотников на потерявших со временем бдительность людей. И лишь осознание того, что их довольно мало, заставило нелюдей выработать особую тактику маскировки и строгие правила охоты, нарушители которых наказываются или отдаются на расправу борцам с нечистью. В центре сюжета оказывается восемнадцатилетний паренёк по имени Кен Канеки. Парень не особо общительный, у него нет девушки и многочисленных друзей. Наш герой предпочитает жить в мире любимых авторов, бесконечно поглощая книги. Но однажды его жизнь буквально переворачивается с ног на голову. Судьба знакомит его с очаровательной девушкой, которая оказывается гулем. Ситуация развивается молниеносно, и по невероятному стечению обстоятельств его знакомая оказывается мертва, а наш герой получает тяжелые ранения. Чтобы спасти парню жизнь, врачи принимают ответственное решение пересадить ему органы мёртвой девушки.



Страна: Япония
Студия: Geek Sight
Продолжительность: 01:59:55
Перевод: Любительский двухголосый, любительский одноголосый

Файл
Кодек: x264
Качество: BDRip 720p (WiKi)
Видео: MPEG-4 AVC, 4578 Кбит/с, 1280x536, 23.976 кадр/с
Аудио #1: AC3, 2 ch, 192 Кбит/с | Любительский двухголосый (Симбад, Oriko)
Аудио #2: AC3, 2 ch, 192 Кбит/с | Любительский одноголосый (Overlord)
Аудио #3: AC3, 6 ch, 640 Кбит/с | Японский
Субтитры: Русские, китайские

АНОНСЫ ПОПУЛЯРНЫХ РАЗДАЧ

Общее
Уникальный идентификатор : 235991514095407800335520758453224620421 (0xB18A4FF6F0C3E3958C5FBE9D29184185)
Полное имя : Tokyo.Ghoul.2017.BDRip.720p.mkv
Формат : Matroska
Версия формата : Version 4 / Version 2
Размер файла : 4,69 Гбайт
Продолжительность : 1 ч. 59 м.
Общий поток : 5602 Кбит/сек
Название фильма : Tokyo.Ghoul.2017.BDRip.720p
Дата кодирования : UTC 2018-01-05 08:40:51
Программа кодирования : mkvmerge v12.0.0 ('Trust / Lust') 32bit
Библиотека кодирования : libebml v1.3.4 + libmatroska v1.4.5
Обложка : Yes
Attachments : cover.jpg

Видео
Идентификатор : 1
Формат : AVC
Формат/Информация : Advanced Video Codec
Профиль формата : High@L4.1
Параметр CABAC формата : Да
Параметр ReFrames формата : 12 кадров
Идентификатор кодека : V_MPEG4/ISO/AVC
Продолжительность : 1 ч. 59 м.
Битрейт : 4578 Кбит/сек
Ширина : 1280 пикселей
Высота : 536 пикселей
Соотношение сторон : 2,40:1
Режим частоты кадров : Постоянный
Частота кадров : 23,976 (24000/1001) кадра/сек
Цветовое пространство : YUV
Субдискретизация насыщенности : 4:2:0
Битовая глубина : 8 бит
Тип развёртки : Прогрессивная
Бит/(Пиксели*Кадры) : 0.278
Размер потока : 3,83 Гбайт (82%)
Заголовок : Tokyo.Ghoul.2017.720p.BluRay.x264-WiKi
Библиотека кодирования : x264 core 129 r2245+704+36 8e61944 tMod+MixAQ [8-bit@4:2:0 X86_64]
Настройки программы : cabac=1 / ref=12 / deblock=1:-3:-3 / analyse=0x3:0x133 / me=umh / subme=11 / psy=1 / fade_compensate=0.00 / psy_rd=1.05:0.10 / mixed_ref=1 / me_range=32 / chroma_me=1 / trellis=2 / 8x8dct=1 / cqm=0 / deadzone=21,11 / fast_pskip=0 / chroma_qp_offset=-3 / threads=18 / lookahead_threads=3 / sliced_threads=0 / nr=0 / decimate=0 / interlaced=0 / bluray_compat=0 / constrained_intra=0 / fgo=0 / bframes=10 / b_pyramid=2 / b_adapt=2 / b_bias=0 / direct=3 / weightb=1 / open_gop=0 / weightp=2 / keyint=250 / keyint_min=23 / scenecut=40 / intra_refresh=0 / rc=2pass / mbtree=0 / bitrate=4578 / ratetol=1.0 / qcomp=0.70 / qpmin=0 / qpmax=69 / qpstep=4 / cplxblur=20.0 / qblur=0.5 / ip_ratio=1.40 / pb_ratio=1.30 / aq=1 / aq-strength=0.90 / aq-sensitivity=10.00 / aq-ifactor=1.00 / aq-pfactor=1.00 / aq-bfactor=1.00 / aq2=0
Язык : Japanese
Default : Да
Forced : Нет

Аудио #1
Идентификатор : 2
Формат : AC-3
Формат/Информация : Audio Coding 3
Параметр Endianness формата : Big
Идентификатор кодека : A_AC3
Продолжительность : 1 ч. 59 м.
Вид битрейта : Постоянный
Битрейт : 192 Кбит/сек
Каналы : 2 канала
Расположение каналов : Front: L R
Частота : 48,0 КГц
Частота кадров : 31,250 кадров/сек (1536 spf)
Битовая глубина : 16 бит
Метод сжатия : С потерями
Размер потока : 165 Мбайт (3%)
Заголовок : DVO - Симбад, Oriko
Язык : Russian
ServiceKind/String : Complete Main
Default : Да
Forced : Нет

Аудио #2
Идентификатор : 3
Формат : AC-3
Формат/Информация : Audio Coding 3
Параметр Endianness формата : Big
Идентификатор кодека : A_AC3
Продолжительность : 1 ч. 59 м.
Вид битрейта : Постоянный
Битрейт : 192 Кбит/сек
Каналы : 2 канала
Расположение каналов : Front: L R
Частота : 48,0 КГц
Частота кадров : 31,250 кадров/сек (1536 spf)
Битовая глубина : 16 бит
Метод сжатия : С потерями
Размер потока : 165 Мбайт (3%)
Заголовок : VO - Overlord
Язык : Russian
ServiceKind/String : Complete Main
Default : Нет
Forced : Нет

Аудио #3
Идентификатор : 4
Формат : AC-3
Формат/Информация : Audio Coding 3
Параметр Endianness формата : Big
Идентификатор кодека : A_AC3
Продолжительность : 1 ч. 59 м.
Вид битрейта : Постоянный
Битрейт : 640 Кбит/сек
Каналы : 6 каналов
Расположение каналов : Front: L C R, Side: L R, LFE
Частота : 48,0 КГц
Частота кадров : 31,250 кадров/сек (1536 spf)
Битовая глубина : 16 бит
Метод сжатия : С потерями
Размер потока : 549 Мбайт (11%)
Заголовок : Original
Язык : Japanese
ServiceKind/String : Complete Main
Default : Нет
Forced : Нет

Текст #1
Идентификатор : 5
Формат : UTF-8
Идентификатор кодека : S_TEXT/UTF8
Идентификатор кодека/Информация : UTF-8 Plain Text
Продолжительность : 1 ч. 59 м.
Битрейт : 39 бит/сек
ElementCount : 756
Размер потока : 34,8 Кбайт (0%)
Заголовок : Full
Язык : Russian
Default : Да
Forced : Нет

Текст #2
Идентификатор : 6
Формат : UTF-8
Идентификатор кодека : S_TEXT/UTF8
Идентификатор кодека/Информация : UTF-8 Plain Text
Продолжительность : 1 ч. 53 м.
Битрейт : 19 бит/сек
ElementCount : 747
Размер потока : 16,2 Кбайт (0%)
Заголовок : Simplified
Язык : Chinese
Default : Нет
Forced : Нет

Текст #3
Идентификатор : 7
Формат : UTF-8
Идентификатор кодека : S_TEXT/UTF8
Идентификатор кодека/Информация : UTF-8 Plain Text
Продолжительность : 1 ч. 53 м.
Битрейт : 19 бит/сек
ElementCount : 747
Размер потока : 16,2 Кбайт (0%)
Заголовок : Traditional
Язык : Chinese
Default : Нет
Forced : Нет

Меню
00:00:00.000 : en:00:00:00.000
00:06:02.028 : en:00:06:02.028
00:11:57.133 : en:00:11:57.133
00:17:23.792 : en:00:17:23.792
00:27:22.223 : en:00:27:22.223
00:37:23.741 : en:00:37:23.741
00:48:49.760 : en:00:48:49.760
00:53:37.339 : en:00:53:37.339
00:59:03.790 : en:00:59:03.790
01:04:36.539 : en:01:04:36.539
01:07:56.197 : en:01:07:56.197
01:12:28.469 : en:01:12:28.469
01:19:42.944 : en:01:19:42.944
01:24:38.490 : en:01:24:38.490
01:30:14.492 : en:01:30:14.492
01:39:00.976 : en:01:39:00.976
01:45:45.172 : en:01:45:45.172
01:54:19.352 : en:01:54:19.352



Скачать Токийский.гуль.Tokyo.guru.Tokyo.Ghoul.(Кэнтаро.Хагивара).[2017.ужасы.боевик.триллер.драма.BDRip].[720p].[DVO.(Симбад.Oriko)]+[VO.(Overlord)]+[Jap]+[Sub.Rus.Chi].torrent без регистрации
Золото ЗОЛОТАЯ РАЗДАЧА! СКАЧАННОЕ НЕ ЗАСЧИТЫВАЕТСЯ! Золото
Дата: Зарегистрирован   [ Тип: внешний ] Как тут cкачать?
MAGNET ссылка
MAGNET ссылка


Скачать .torrent

24 KB

Статус: проверено DHT
Скачан: торрент - 101 раз, раздача полностью - 140 раз
Размер: 4,69 GB
Оценка:  5 (Голосов: 1)
Поблагодарили: 8
Поделиться ссылкой на эту раздачу с друзьями:
В контактеFacebookОдноклассникиTwitterLivejournalМой МирLiveinternet
 

 
Показать сообщения:    


Вы не можете начинать темы
Вы не можете отвечать на сообщения
Вы не можете редактировать свои сообщения
Вы не можете удалять свои сообщения
Вы не можете голосовать в опросах
Вы не можете прикреплять файлы к сообщениям
Вы можете скачивать файлы