Loading...
Error

Скачать Валериан и город тысячи планет / Valerian and the City of a Thousand Planets (Люк Бессон) [2017, фантастика, фэнтези, боевик, приключения, BDRip-HEVC] [2160p (4K HDR)] [Dub (лицензия)]+[Ukr]+[Eng]+[Sub Rus, Eng] торрент без регистрации

Статистика раздачи
Размер:  13,69 GB   |    Скачан:  52 раза
Сидов:  18  [  92 KB/s  ]   Личеров:  3  [  0 KB/s  ]  
 
 
 
Автор Сообщение

МихаНЕзатор

[] 



Название: Валериан и город тысячи планет
Оригинальное название: Valerian and the City of a Thousand Planets
Год выпуска: 2017
Страна: Франция
Жанр: Фантастика, фэнтези, боевик, приключения
Режиссёр: Люк Бессон

В ролях: Дэйн ДеХаан, Кара Делевинь, Клайв Оуэн, Рианна, Итэн Хоук, Херби Хэнкок, Крис У, Сэм Спруэлл, Ален Шаба, Рутгер Хауэр

Описание: Валериан и Лорелин - на вид милые юноша и девушка с открытыми, преисполненными общечеловеческими идеалами лицами. Между тем, оба - агенты полицейских сил, отличники строевой и политической, морально устойчивы, в быту выдержаны и беспощадны к врагам Земного Альянса. И вот этот образцовый коллектив прибывает на космическую станцию "Альфа", которая за семь с лишним веков разрослась от МКС до огромного лабиринта планетарного масштаба. Станцию населяют более 30 миллионов существ из тысячи разных миров. Существа мирно делят квадратные метры, обмениваются передовым опытом и активно занимаются установлением гармонии среди миролюбивых народов интергалактического товарищества. Однако, в недрах комплекса зреет и борется за жизненное пространство радиационная аномалия, угрожающая развалить на части все достижения народного хозяйства. Крепко спаянному дуэту агентов предстоит не только распутать это гиблое дело в конкретно сжатые сроки, но и преодолеть сопротивление полностью разложившихся субъектов и прочих беззастенчивых элементов, готовых на все ради собственной выгоды.



Видеоряд: SWTYBLZ
Сборка: Alex_A

Продолжительность: 02:17:24
Перевод: Дублированный [Лицензия]
Субтитры: Русские, английские

Качество: BDRip-HEVC 2160p
Формат: MKV
Видео кодек: x265@10bit
Аудио кодек: DTS, AC3
Видео: 3840x1612, 23,976 fps, HEVC, ~11.9 Mbps, 10bit
Аудио: Rus, 48 kHz/24-bit, DTS 5.1, ~1509 kbps | Дубляж
Аудио: Ukr, 48 kHz/16-bit, AC3 2.0, ~192 kbps | Дубляж (Line)
Аудио: Eng, 48 kHz/16-bit, AC3 5.1, ~640 kbps | Оригинал
Навигация по главам: Присутствует

Для просмотра HDR-контента необходим телевизор с поддержкой HDR.
Для Просмотра 4K HDR-контента на ПК установите PotPlayer (http://potplayer.ru)
- H.265/HEVC (High Efficiency Video Coding) - это новый стандарт кодирования видео.
- Стандарт H.265/HEVC является логическим продолжением стандарта H.264/AVC (Advanced Video Coding), и характеризуется более эффективными алгоритмами сжатия, а также поддержкой высокого разрешения вплоть до 8K UHD (8192x4320). Первая версия стандарта H.265 была опубликована в начале 2013 года.
- Рипы в фомате HEVC поддерживается не всеми аппаратными проигрывателями.
- Для корректного воспроизведения может потребоваться обновление ПО.
- Владельцам несовместимого железа просьба не беспокоить, есть альтернативные релизы.
General
Unique ID : 269642084552377499675191947334644482198 (0xCADB2D2E7D9EE6BBD9243480209D4096)
Complete name : e:HEVCValerian and the City of a Thousand Planets (2017) 4KValerian.and.the.City.of.a.Thousand.Planets.2017.2160p.HDR_HEVC.CLUB.mkv
Format : Matroska
Format version : Version 4 / Version 2
File size : 13.7 GiB
Duration : 2 h 17 min
Overall bit rate : 14.3 Mb/s
Movie name : Valerian and the City of a Thousand Planets (2017) - HEVC.CLUB
Encoded date : UTC 2018-01-05 14:04:43
Writing application : mkvmerge v19.0.0 ('Brave Captain') 64-bit
Writing library : libebml v1.3.5 + libmatroska v1.4.8
Cover : Yes
Attachments : Cover.jpg

Video
ID : 1
Format : HEVC
Format/Info : High Efficiency Video Coding
Format profile : Main 10@L5.1@High
Codec ID : V_MPEGH/ISO/HEVC
Duration : 2 h 17 min
Bit rate : 11.9 Mb/s
Width : 3 840 pixels
Height : 1 612 pixels
Display aspect ratio : 2.40:1
Frame rate mode : Constant
Frame rate : 23.976 (24000/1001) FPS
Color space : YUV
Chroma subsampling : 4:2:0 (Type 2)
Bit depth : 10 bits
Bits/(Pixel*Frame) : 0.080
Stream size : 11.4 GiB (84%)
Title : SWTYBLZ
Writing library : x265 2.5+4-b4a5bcfe29c7:[Windows][GCC 4.9.3][64 bit] 10bit
Encoding settings : cpuid=1173503 / frame-threads=16 / numa-pools=24,24,24,24 / wpp / no-pmode / no-pme / no-psnr / no-ssim / log-level=2 / input-csp=1 / input-res=3840x1612 / interlace=0 / total-frames=0 / level-idc=51 / high-tier=1 / uhd-bd=0 / ref=3 / no-allow-non-conformance / repeat-headers / annexb / aud / hrd / info / hash=0 / no-temporal-layers / no-open-gop / min-keyint=1 / keyint=24 / bframes=4 / b-adapt=2 / b-pyramid / bframe-bias=0 / rc-lookahead=25 / lookahead-slices=4 / scenecut=40 / no-intra-refresh / ctu=64 / min-cu-size=8 / no-rect / no-amp / max-tu-size=32 / tu-inter-depth=1 / tu-intra-depth=1 / limit-tu=0 / rdoq-level=0 / dynamic-rd=0.00 / no-ssim-rd / signhide / no-tskip / nr-intra=0 / nr-inter=0 / no-constrained-intra / strong-intra-smoothing / max-merge=2 / limit-refs=3 / no-limit-modes / me=1 / subme=2 / merange=57 / temporal-mvp / weightp / no-weightb / no-analyze-src-pics / deblock=0:0 / no-sao / no-sao-non-deblock / rd=3 / no-early-skip / rskip / no-fast-intra / no-tskip-fast / no-cu-lossless / no-b-intra / rdpenalty=0 / psy-rd=2.00 / psy-rdoq=0.00 / no-rd-refine / analysis-reuse-mode=0 / no-lossless / cbqpoffs=0 / crqpoffs=0 / rc=crf / crf=16.0 / qcomp=0.60 / qpstep=4 / stats-write=0 / stats-read=0 / vbv-maxrate=160000 / vbv-bufsize=160000 / vbv-init=0.9 / crf-max=0.0 / crf-min=0.0 / ipratio=1.40 / pbratio=1.30 / aq-mode=1 / aq-strength=1.00 / cutree / zone-count=0 / no-strict-cbr / qg-size=32 / no-rc-grain / qpmax=69 / qpmin=0 / no-const-vbv / sar=1 / overscan=0 / videoformat=5 / range=0 / colorprim=9 / transfer=16 / colormatrix=9 / chromaloc=1 / chromaloc-top=2 / chromaloc-bottom=2 / display-window=0 / master-display=G(13250,34500)B(7500,3000)R(34000,16000)WP(15635,16450)L(40000000,50) / max-cll=0,0 / min-luma=0 / max-luma=1023 / log2-max-poc-lsb=8 / vui-timing-info / vui-hrd-info / slices=1 / opt-qp-pps / opt-ref-list-length-pps / no-multi-pass-opt-rps / scenecut-bias=0.05 / no-opt-cu-delta-qp / no-aq-motion / hdr / hdr-opt / no-dhdr10-opt / analysis-reuse-level=5 / scale-factor=0 / refine-intra=0 / refine-inter=0 / refine-mv=0 / no-limit-sao / ctu-info=0
Default : Yes
Forced : No
Color range : Limited
Color primaries : BT.2020
Transfer characteristics : PQ
Matrix coefficients : BT.2020 non-constant
Mastering display color primaries : R: x=0.680000 y=0.320000, G: x=0.265000 y=0.690000, B: x=0.150000 y=0.060000, White point: x=0.312700 y=0.329000
Mastering display luminance : min: 0.0050 cd/m2, max: 4000.0000 cd/m2

Audio #1
ID : 2
Format : DTS
Format/Info : Digital Theater Systems
Codec ID : A_DTS
Duration : 2 h 16 min
Bit rate mode : Constant
Bit rate : 1 509 kb/s
Channel(s) : 6 channels
Channel positions : Front: L C R, Side: L R, LFE
Sampling rate : 48.0 kHz
Frame rate : 93.750 FPS (512 SPF)
Bit depth : 24 bits
Compression mode : Lossy
Delay relative to video : 6 s 600 ms
Stream size : 1.44 GiB (11%)
Title : Dub [License]
Language : Russian
Default : Yes
Forced : No

Audio #2
ID : 3
Format : AC-3
Format/Info : Audio Coding 3
Codec ID : A_AC3
Duration : 2 h 17 min
Bit rate mode : Constant
Bit rate : 192 kb/s
Channel(s) : 2 channels
Channel positions : Front: L R
Sampling rate : 48.0 kHz
Frame rate : 31.250 FPS (1536 SPF)
Bit depth : 16 bits
Compression mode : Lossy
Delay relative to video : 2 s 300 ms
Stream size : 188 MiB (1%)
Title : Dub [Line]
Language : Ukrainian
Service kind : Complete Main
Default : No
Forced : No

Audio #3
ID : 4
Format : AC-3
Format/Info : Audio Coding 3
Codec ID : A_AC3
Duration : 2 h 16 min
Bit rate mode : Constant
Bit rate : 640 kb/s
Channel(s) : 6 channels
Channel positions : Front: L C R, Side: L R, LFE
Sampling rate : 48.0 kHz
Frame rate : 31.250 FPS (1536 SPF)
Bit depth : 16 bits
Compression mode : Lossy
Delay relative to video : 6 s 600 ms
Stream size : 627 MiB (4%)
Title : Original
Language : English
Service kind : Complete Main
Default : No
Forced : No

Text #1
ID : 5
Format : UTF-8
Codec ID : S_TEXT/UTF8
Codec ID/Info : UTF-8 Plain Text
Duration : 2 h 6 min
Bit rate : 87 b/s
Count of elements : 1541
Stream size : 81.3 KiB (0%)
Title : Full
Language : Russian
Default : No
Forced : No

Text #2
ID : 6
Format : UTF-8
Codec ID : S_TEXT/UTF8
Codec ID/Info : UTF-8 Plain Text
Duration : 2 h 13 min
Bit rate : 56 b/s
Count of elements : 1630
Stream size : 55.7 KiB (0%)
Title : Full
Language : English
Default : No
Forced : No

Menu
00:00:00.000 : en:Chapter 1
00:11:12.213 : en:Chapter 2
00:20:10.500 : en:Chapter 3
00:30:38.336 : en:Chapter 4
00:41:21.562 : en:Chapter 5
00:51:37.344 : en:Chapter 6
01:01:54.919 : en:Chapter 7
01:10:50.996 : en:Chapter 8
01:20:27.489 : en:Chapter 9
01:34:23.741 : en:Chapter 10
01:44:35.102 : en:Chapter 11
01:57:01.723 : en:Chapter 12
02:06:18.195 : en:Chapter 13



Скачать Валериан.и.город.тысячи.планет.Valerian.and.the.City.of.a.Thousand.Planets.(Люк.Бессон).[2017.фантастика.фэнтези.боевик.приключения.BDRip-HEVC].[2160p.(4K.HDR)].[Dub.(лицензия)]+[Ukr]+[Eng]+[Sub.Rus.Eng].torrent без регистрации
Золото ЗОЛОТАЯ РАЗДАЧА! СКАЧАННОЕ НЕ ЗАСЧИТЫВАЕТСЯ! Золото
Дата: Зарегистрирован   [ Тип: внешний ] Как тут cкачать?
MAGNET ссылка
MAGNET ссылка


Скачать .torrent

36 KB

Статус: проверено DHT
Скачан: торрент - 52 раз, раздача полностью - 53 раз
Размер: 13,69 GB
Оценка:  - (Голосов: 0)
Поблагодарили: 3
Поделиться ссылкой на эту раздачу с друзьями:
В контактеFacebookОдноклассникиTwitterLivejournalМой МирLiveinternet
 

 
Показать сообщения:    


Вы не можете начинать темы
Вы не можете отвечать на сообщения
Вы не можете редактировать свои сообщения
Вы не можете удалять свои сообщения
Вы не можете голосовать в опросах
Вы не можете прикреплять файлы к сообщениям
Вы можете скачивать файлы