Loading...
Error

Скачать Ноябрьские преступники / November Criminals (Саша Джерваси) 2017, драма, криминал, детектив, BDRemux] [1080p] [MVO (Лицензия)]+[Eng]+[Sub Rus, Eng] торрент без регистрации

Статистика раздачи
Размер:  16,59 GB   |    Скачан:  20 раз
Сидов:  1  [  0 KB/s  ]  
 
 
 
Автор Сообщение

МихаНЕзатор

[] 

Информация о фильме
Название: Ноябрьские преступники
Оригинальное название: November Criminals
Год выхода: 2017
Жанр: Драма, криминал, детектив
Режиссер: Саша Джерваси

В ролях: Энсел Элгорт, Хлоя Грейс Морец, Кэтрин Кинер, Дэвид Стрэтэйрн, Кори Хардрикт, Терри Кинни, Дэн Флаэрти, Тесса Альбертсон, Виктор Уильямс, Элли Маршалл

О фильме: 18-летний Эддисон распространяет в школе наркотики, оскорбляет учителей, зло шутит надо всеми. Но когда от пули погибает его одноклассник, Эддисон берется за смелое расследование и попутно влюбляется в свою напарницу.



Страна: США,
Студия: Black Bicycle Entertainment
Продолжительность: 01:25:54
Перевод: Профессиональный многоголосый | Лицензия

Файл
Качество: BDRemux 1080p
Видео: MPEG-4 AVC, 1920x1080, 24.9 Mbit/s, 23.976 fps
Звук:
Аудио #01: 48 kHz, AC3, 5.1, 640 Kbps | Лицензия | RUS |
Аудио #02: 48 kHz, DTS-HD MA, 5.1, 2153 Kbps | Оригинал | ENG |
Субтитры: Русские (full), английские

АНОНСЫ ПОПУЛЯРНЫХ РАЗДАЧ
General
Unique ID : 221835954033254377892957933230129257305 (0xA6E40CF825D8A582460B7E92CC759B59)
Complete name : G:VideoSSDNovember.Criminals.2017.BDREMUX.1080p.ExKinoRay.mkv
Format : Matroska
Format version : Version 4 / Version 2
File size : 16.6 GiB
Duration : 1 h 25 min
Overall bit rate mode : Variable
Overall bit rate : 27.7 Mb/s
Movie name : November Criminals 2017 from ExKinoRay
Encoded date : UTC 2018-01-02 17:08:27
Writing application : mkvmerge v19.0.0 ('Brave Captain') 64-bit
Writing library : libebml v1.3.5 + libmatroska v1.4.8

Video
ID : 1
Format : AVC
Format/Info : Advanced Video Codec
Format profile : High@L4.1
Format settings : CABAC / 2 Ref Frames
Format settings, CABAC : Yes
Format settings, ReFrames : 2 frames
Codec ID : V_MPEG4/ISO/AVC
Duration : 1 h 25 min
Bit rate mode : Variable
Bit rate : 24.9 Mb/s
Width : 1 920 pixels
Height : 1 080 pixels
Display aspect ratio : 16:9
Frame rate mode : Constant
Frame rate : 23.976 (24000/1001) FPS
Color space : YUV
Chroma subsampling : 4:2:0
Bit depth : 8 bits
Scan type : Progressive
Bits/(Pixel*Frame) : 0.500
Stream size : 14.9 GiB (90%)
Language : English
Default : Yes
Forced : No

Audio #1
ID : 2
Format : AC-3
Format/Info : Audio Coding 3
Codec ID : A_AC3
Duration : 1 h 25 min
Bit rate mode : Constant
Bit rate : 640 kb/s
Channel(s) : 6 channels
Channel positions : Front: L C R, Side: L R, LFE
Sampling rate : 48.0 kHz
Frame rate : 31.250 FPS (1536 SPF)
Bit depth : 16 bits
Compression mode : Lossy
Delay relative to video : 24 ms
Stream size : 393 MiB (2%)
Title : MVO [License]
Language : Russian
Service kind : Complete Main
Default : Yes
Forced : No

Audio #2
ID : 3
Format : DTS
Format/Info : Digital Theater Systems
Format profile : MA / Core
Codec ID : A_DTS
Duration : 1 h 25 min
Bit rate mode : Variable / Constant
Bit rate : 2 153 kb/s / 1 509 kb/s
Channel(s) : 6 channels
Channel positions : Front: L C R, Side: L R, LFE
Sampling rate : 48.0 kHz
Frame rate : 93.750 FPS (512 SPF)
Bit depth : 16 bits
Compression mode : Lossless / Lossy
Stream size : 1.29 GiB (8%)
Title : Original
Language : English
Default : No
Forced : No

Text #1
ID : 4
Format : UTF-8
Codec ID : S_TEXT/UTF8
Codec ID/Info : UTF-8 Plain Text
Duration : 1 h 24 min
Bit rate : 88 b/s
Count of elements : 1216
Stream size : 54.9 KiB (0%)
Title : Full
Language : Russian
Default : No
Forced : No

Text #2
ID : 5
Format : UTF-8
Codec ID : S_TEXT/UTF8
Codec ID/Info : UTF-8 Plain Text
Duration : 1 h 15 min
Bit rate : 70 b/s
Count of elements : 1238
Stream size : 38.8 KiB (0%)
Title : Full
Language : English
Default : No
Forced : No

Menu
00:00:00.000 : en:Chapter 1
00:08:00.521 : en:Chapter 2
00:12:34.837 : en:Chapter 3
00:16:58.392 : en:Chapter 4
00:20:41.740 : en:Chapter 5
00:23:47.884 : en:Chapter 6
00:28:06.559 : en:Chapter 7
00:33:31.592 : en:Chapter 8
00:41:05.504 : en:Chapter 9
00:46:20.986 : en:Chapter 10
00:50:08.338 : en:Chapter 11
00:56:56.579 : en:Chapter 12
00:59:55.717 : en:Chapter 13
01:05:51.197 : en:Chapter 14
01:09:35.963 : en:Chapter 15
01:13:45.170 : en:Chapter 16



Скачать Ноябрьские.преступники.November.Criminals.(Саша.Джерваси).2017.драма.криминал.детектив.BDRemux].[1080p].[MVO.(Лицензия)]+[Eng]+[Sub.Rus.Eng].torrent без регистрации
Золото ЗОЛОТАЯ РАЗДАЧА! СКАЧАННОЕ НЕ ЗАСЧИТЫВАЕТСЯ! Золото
Дата: Зарегистрирован   [ Тип: внутренний ] Как тут cкачать?
MAGNET ссылка
MAGNET ссылка


Скачать .torrent

84 KB

Статус: проверено DHT
Скачан: торрент - 20 раз, раздача полностью - 18 раз
Размер: 16,59 GB
Оценка:  - (Голосов: 0)
Поблагодарили: 1
Поделиться ссылкой на эту раздачу с друзьями:
В контактеFacebookОдноклассникиTwitterLivejournalМой МирLiveinternet
 

 
Показать сообщения:    


Вы не можете начинать темы
Вы не можете отвечать на сообщения
Вы не можете редактировать свои сообщения
Вы не можете удалять свои сообщения
Вы не можете голосовать в опросах
Вы не можете прикреплять файлы к сообщениям
Вы можете скачивать файлы