Loading...
Error

Скачать Статус Брэда / Brad's Status (Майк Уайт) [2017, драма, комедия, музыка, BDRip-HEVC] [1080p] [Dub (лицензия iTunes)]+[Eng]+[Sub Eng] торрент без регистрации

Статистика раздачи
Размер:  6,17 GB   |    Скачан:  126 раз
Сидов:  1  [  0 KB/s  ]  
 
 
 
Автор Сообщение

МихаНЕзатор

[] 

Название: Статус Брэда
Оригинальное название: Brad's Status
Год выпуска: 2017
Страна: США
Жанр: Драма, комедия, музыка

В ролях: Бен Стиллер, Остин Абрамс, Дженна Фишер, Майкл Шин, Джемейн Клемент, Люк Уилсон, Шази Раджа, Луиза Ли, Майк Уайт, Хавьер Гробет
Режиссёр: Майк Уайт

Описание: Главный герой ленты, Брэд (Стиллер), имеет хорошую работу и любящую, счастливую семью. Однако Брэд становится одержим тем, что у его бывших одноклассников жизнь сложилась куда лучше, чем у него. Герою придется вновь столкнуться со своими и друзьями и чувством собственной несостоятельности, что приведет к самым забавным и нелепым последствиям.


Автор рипа: Alex_A

Продолжительность: 01:41:57
Перевод: Дублированный [iTunes]
Субтитры: Английские

Качество: BDRip-HEVC 1080p
Формат: MKV
Видео кодек: x265@10bit
Аудио кодек: DTS, AC3
Видео: 1920x956, 23.976 fps, HEVC, ~7515 kbps, 10bit
Аудио: Rus, 48 kHz/16-bit, AC3 5.1, ~384 kbps | Дубляж
Аудио: Eng, 48 kHz/24-bit, DTS 5.1, ~756 kbps | Оригинал
Навигация по главам: Присутствует

АНОНСЫ ПОПУЛЯРНЫХ РАЗДАЧ
- H.265/HEVC (High Efficiency Video Coding) - это новый стандарт кодирования видео.
- Стандарт H.265/HEVC является логическим продолжением стандарта H.264/AVC (Advanced Video Coding), и характеризуется более эффективными алгоритмами сжатия, а также поддержкой высокого разрешения вплоть до 8K UHD (8192x4320). Первая версия стандарта H.265 была опубликована в начале 2013 года.
- Рипы в фомате HEVC поддерживается не всеми аппаратными проигрывателями.
- Для корректного воспроизведения может потребоваться обновление ПО.
- Владельцам несовместимого железа просьба не беспокоить, есть альтернативные релизы.
General
Unique ID : 330866552451698694700718756841026210677 (0xF8EA948130C096403508E1F4DA6FCB75)
Complete name : e:HEVCBrads Status (2017)Brads.Status.2017.1080p_HEVCCLUB.mkv
Format : Matroska
Format version : Version 4 / Version 2
File size : 6.17 GiB
Duration : 1 h 41 min
Overall bit rate : 8 658 kb/s
Movie name : Brads Status (2017) - HEVC.CLUB
Encoded date : UTC 2018-01-05 19:37:20
Writing application : mkvmerge v19.0.0 ('Brave Captain') 64-bit
Writing library : libebml v1.3.5 + libmatroska v1.4.8
Cover : Yes
Attachments : Cover.jpg

Video
ID : 1
Format : HEVC
Format/Info : High Efficiency Video Coding
Format profile : Main 10@L4.1@High
Codec ID : V_MPEGH/ISO/HEVC
Duration : 1 h 41 min
Bit rate : 7 515 kb/s
Width : 1 920 pixels
Height : 956 pixels
Display aspect ratio : 2.008
Frame rate mode : Constant
Frame rate : 23.976 (24000/1001) FPS
Color space : YUV
Chroma subsampling : 4:2:0
Bit depth : 10 bits
Bits/(Pixel*Frame) : 0.171
Stream size : 5.35 GiB (87%)
Title : HEVC.CLUB
Writing library : x265 2.6+22-ff02513b92c0:[Windows][GCC 7.2.0][64 bit] 10bit
Encoding settings : cpuid=1173503 / frame-threads=3 / numa-pools=8 / wpp / no-pmode / no-pme / no-psnr / no-ssim / log-level=2 / input-csp=1 / input-res=1920x956 / interlace=0 / total-frames=0 / level-idc=41 / high-tier=1 / uhd-bd=0 / ref=5 / no-allow-non-conformance / repeat-headers / annexb / no-aud / no-hrd / info / hash=0 / no-temporal-layers / open-gop / min-keyint=23 / keyint=250 / gop-lookahead=0 / bframes=10 / b-adapt=2 / b-pyramid / bframe-bias=0 / rc-lookahead=60 / lookahead-slices=1 / scenecut=40 / radl=0 / no-intra-refresh / ctu=64 / min-cu-size=8 / no-rect / no-amp / max-tu-size=32 / tu-inter-depth=2 / tu-intra-depth=2 / limit-tu=0 / rdoq-level=1 / dynamic-rd=2.00 / no-ssim-rd / signhide / no-tskip / nr-intra=0 / nr-inter=0 / no-constrained-intra / no-strong-intra-smoothing / max-merge=2 / limit-refs=3 / no-limit-modes / me=2 / subme=4 / merange=57 / temporal-mvp / weightp / weightb / no-analyze-src-pics / deblock=-3:-3 / no-sao / no-sao-non-deblock / rd=4 / no-early-skip / no-rskip / no-fast-intra / no-tskip-fast / no-cu-lossless / no-b-intra / no-splitrd-skip / rdpenalty=0 / psy-rd=1.75 / psy-rdoq=2.50 / no-rd-refine / no-lossless / cbqpoffs=0 / crqpoffs=0 / rc=crf / crf=22.0 / qcomp=0.80 / qpstep=6 / stats-write=0 / stats-read=0 / vbv-maxrate=50000 / vbv-bufsize=50000 / vbv-init=0.9 / crf-max=0.0 / crf-min=0.0 / ipratio=1.40 / pbratio=1.10 / aq-mode=1 / aq-strength=0.20 / no-cutree / zone-count=0 / no-strict-cbr / qg-size=32 / no-rc-grain / qpmax=69 / qpmin=0 / no-const-vbv / sar=1 / overscan=0 / videoformat=5 / range=0 / colorprim=2 / transfer=2 / colormatrix=2 / chromaloc=0 / display-window=0 / max-cll=0,0 / min-luma=0 / max-luma=1023 / log2-max-poc-lsb=8 / vui-timing-info / vui-hrd-info / slices=1 / no-opt-qp-pps / no-opt-ref-list-length-pps / no-multi-pass-opt-rps / scenecut-bias=0.05 / no-opt-cu-delta-qp / aq-motion / no-hdr / no-hdr-opt / no-dhdr10-opt / analysis-save=(null) / analysis-load=(null) / analysis-reuse-level=5 / scale-factor=0 / refine-intra=0 / refine-inter=0 / refine-mv=0 / no-limit-sao / ctu-info=0 / no-lowpass-dct / refine-mv-type=0 / copy-pic=1
Default : Yes
Forced : Yes

Audio #1
ID : 2
Format : AC-3
Format/Info : Audio Coding 3
Codec ID : A_AC3
Duration : 1 h 41 min
Bit rate mode : Constant
Bit rate : 384 kb/s
Channel(s) : 6 channels
Channel positions : Front: L C R, Side: L R, LFE
Sampling rate : 48.0 kHz
Frame rate : 31.250 FPS (1536 SPF)
Bit depth : 16 bits
Compression mode : Lossy
Stream size : 280 MiB (4%)
Title : Dub [iTunes]
Language : Russian
Service kind : Complete Main
Default : Yes
Forced : No

Audio #2
ID : 3
Format : DTS
Format/Info : Digital Theater Systems
Codec ID : A_DTS
Duration : 1 h 41 min
Bit rate mode : Constant
Bit rate : 756 kb/s
Channel(s) : 6 channels
Channel positions : Front: L C R, Side: L R, LFE
Sampling rate : 48.0 kHz
Frame rate : 93.750 FPS (512 SPF)
Bit depth : 24 bits
Compression mode : Lossy
Stream size : 551 MiB (9%)
Title : Original
Language : English
Default : No
Forced : No

Text
ID : 4
Format : UTF-8
Codec ID : S_TEXT/UTF8
Codec ID/Info : UTF-8 Plain Text
Duration : 1 h 40 min
Bit rate : 76 b/s
Count of elements : 1740
Stream size : 56.5 KiB (0%)
Title : Full
Language : English
Default : No
Forced : No

Menu
00:00:00.000 : en:Chapter 1
00:06:45.655 : en:Chapter 2
00:09:51.549 : en:Chapter 3
00:13:41.821 : en:Chapter 4
00:19:08.647 : en:Chapter 5
00:25:13.929 : en:Chapter 6
00:31:48.615 : en:Chapter 7
00:34:22.769 : en:Chapter 8
00:39:59.063 : en:Chapter 9
00:43:55.508 : en:Chapter 10
00:49:21.041 : en:Chapter 11
00:56:21.503 : en:Chapter 12
01:03:05.156 : en:Chapter 13
01:07:03.770 : en:Chapter 14
01:10:27.306 : en:Chapter 15
01:15:14.802 : en:Chapter 16
01:22:07.047 : en:Chapter 17
01:27:11.268 : en:Chapter 18
01:31:19.265 : en:Chapter 19
01:35:28.723 : en:Chapter 20



Скачать Статус.Брэда.Brad's.Status.(Майк.Уайт).[2017.драма.комедия.музыка.BDRip-HEVC].[1080p].[Dub.(лицензия.iTunes)]+[Eng]+[Sub.Eng].torrent без регистрации
Золото ЗОЛОТАЯ РАЗДАЧА! СКАЧАННОЕ НЕ ЗАСЧИТЫВАЕТСЯ! Золото
Дата: Зарегистрирован   [ Тип: внутренний ] Как тут cкачать?
MAGNET ссылка
MAGNET ссылка


Скачать .torrent

17 KB

Статус: проверено DHT
Скачан: торрент - 126 раз, раздача полностью - 59 раз
Размер: 6,17 GB
Оценка:  5 (Голосов: 1)
Поблагодарили: 2
Поделиться ссылкой на эту раздачу с друзьями:
В контактеFacebookОдноклассникиTwitterLivejournalМой МирLiveinternet
 

 
Показать сообщения:    


Вы не можете начинать темы
Вы не можете отвечать на сообщения
Вы не можете редактировать свои сообщения
Вы не можете удалять свои сообщения
Вы не можете голосовать в опросах
Вы не можете прикреплять файлы к сообщениям
Вы можете скачивать файлы