Loading...
Error

Скачать Наёмник / American Assassin (Майкл Куэста) [2017, боевик, триллер, BDRip] [1080p] [Dub (Лицензия iTunes)]+[MVO (Paradox & Omskbird)]+[Eng]+[Sub Rus, Eng] торрент без регистрации

Статистика раздачи
Размер:  7,9 GB   |    Скачан:  89 раз
Сидов:  1  [  0,4 KB/s  ]  
 
 
 
Автор Сообщение

МихаНЕзатор

[] 

Информация о фильме
Название: Наемник
Оригинальное название: American Assassin
Год выхода: 2017
Жанр: Боевик, триллер
Режиссер: Майкл Куэста

В ролях: Дилан О’Брайен, Майкл Китон, Шарлотта Вега, Кристофер Бомфорд, Кристофер Уэбстер, Шахид Ахмед, Бастер Ривз, Ник Кавальере, Саймон Коннолли, Юсеф «Джо» Свейд ...

О фильме: Тайный наёмник ЦРУ Митч Рэпп раздавлен потерей невесты в результате теракта. Заместитель директора ЦРУ назначает Стэна Хёрли обучать убитого горем, но серьёзно настроенного Митча для предотвращения террористических операций и охоты на преступников. Вместе они исследуют волну, на первый взгляд, случайных нападений на военные и гражданские объекты. Но позже напарникам предстоит объединиться с турецким агентом, чтобы предотвратить начало Третьей мировой войны на Ближнем Востоке.

Релиз: &

Страна: США
Студия: CBS Films, Di Bonaventura Pictures, Lionsgate, Nick Wechsler Productions
Продолжительность: 01:51:38
Перевод: Дублированный | iTunes, любительский многоголосый | Paradox&Omskbird

Файл
Формат: MKV
Качество: BDRip 1080p | BDRemux 1080p |
Видео: AVC, 1920x804 (2.40:1), 23.976 fps, 8 667 Kbps (0.234 bit/pixel)
Аудио #1: AC-3, 48.0 KHz, 6 ch, 384 Kbps, CBR (Russian) - дублированный
Аудио #2: AC-3, 48.0 KHz, 6 ch, 448 Kbps, CBR (Russian) - многоголосый
Аудио #3: AC-3, 48.0 KHz, 6 ch, 640 Kbps, CBR (English) - оригинальная звуковая дорожка
Субтитры: русские (forced), английские (full)

АНОНСЫ ПОПУЛЯРНЫХ РАЗДАЧ

Полное имя : D:ФИЛЬМЫНаёмник.2017 BDRip 1080p.k.e.n & MegaPeer.mkv
Формат : Matroska
Версия формата : Version 2
Размер файла : 7,90 Гбайт
Продолжительность : 1 ч. 51 м.
Общий поток : 10,1 Мбит/сек
Дата кодирования : UTC 2018-01-07 08:24:59
Программа кодирования : mkvmerge v5.3.0 ('I could have danced') built on Feb 9 2012 10:38:07
Библиотека кодирования : libebml v1.2.3 + libmatroska v1.3.0
Attachments : poster 3.jpg

Видео
Идентификатор : 1
Формат : AVC
Формат/Информация : Advanced Video Codec
Профиль формата : High@L4.1
Параметр CABAC формата : Да
Параметр ReFrames формата : 5 кадров
Идентификатор кодека : V_MPEG4/ISO/AVC
Продолжительность : 1 ч. 51 м.
Битрейт : 8667 Кбит/сек
Ширина : 1920 пикселей
Высота : 804 пикселя
Соотношение сторон : 2,40:1
Режим частоты кадров : Постоянный
Частота кадров : 23,976 (24000/1001) кадра/сек
Цветовое пространство : YUV
Субдискретизация насыщенности : 4:2:0
Битовая глубина : 8 бит
Тип развёртки : Прогрессивная
Бит/(Пиксели*Кадры) : 0.234
Размер потока : 6,60 Гбайт (83%)
Библиотека кодирования : x264 core 146 r2538 121396c
Настройки программы : cabac=1 / ref=5 / deblock=1:-3:-3 / analyse=0x3:0x133 / me=umh / subme=11 / psy=1 / psy_rd=1.00:0.00 / mixed_ref=1 / me_range=32 / chroma_me=1 / trellis=2 / 8x8dct=1 / cqm=0 / deadzone=21,11 / fast_pskip=0 / chroma_qp_offset=-2 / threads=12 / lookahead_threads=3 / sliced_threads=0 / nr=0 / decimate=0 / interlaced=0 / bluray_compat=0 / constrained_intra=0 / bframes=10 / b_pyramid=2 / b_adapt=2 / b_bias=0 / direct=3 / weightb=1 / open_gop=0 / weightp=2 / keyint=240 / keyint_min=23 / scenecut=40 / intra_refresh=0 / rc=2pass / mbtree=0 / bitrate=8667 / ratetol=1.0 / qcomp=0.60 / qpmin=0 / qpmax=69 / qpstep=4 / cplxblur=20.0 / qblur=0.5 / ip_ratio=1.40 / pb_ratio=1.30 / aq=1:0.90
Язык : English
Default : Да
Forced : Нет

Аудио #1
Идентификатор : 2
Формат : AC-3
Формат/Информация : Audio Coding 3
Расширение режима : CM (complete main)
Параметр Endianness формата : Big
Идентификатор кодека : A_AC3
Продолжительность : 1 ч. 51 м.
Вид битрейта : Постоянный
Битрейт : 384 Кбит/сек
Каналы : 6 каналов
Расположение каналов : Front: L C R, Side: L R, LFE
Частота : 48,0 КГц
Частота кадров : 31,250 кадров/сек (1536 spf)
Битовая глубина : 16 бит
Метод сжатия : С потерями
Размер потока : 307 Мбайт (4%)
Заголовок : Дублированный
Язык : Russian
Default : Да
Forced : Нет

Аудио #2
Идентификатор : 3
Формат : AC-3
Формат/Информация : Audio Coding 3
Расширение режима : CM (complete main)
Параметр Endianness формата : Big
Идентификатор кодека : A_AC3
Продолжительность : 1 ч. 51 м.
Вид битрейта : Постоянный
Битрейт : 448 Кбит/сек
Каналы : 6 каналов
Расположение каналов : Front: L C R, Side: L R, LFE
Частота : 48,0 КГц
Частота кадров : 31,250 кадров/сек (1536 spf)
Битовая глубина : 16 бит
Метод сжатия : С потерями
Размер потока : 358 Мбайт (4%)
Заголовок : Многоголосый [Студия "Paradox" & Omskbird records]
Язык : Russian
Default : Нет
Forced : Нет

Аудио #3
Идентификатор : 4
Формат : AC-3
Формат/Информация : Audio Coding 3
Расширение режима : CM (complete main)
Параметр Endianness формата : Big
Идентификатор кодека : A_AC3
Продолжительность : 1 ч. 51 м.
Вид битрейта : Постоянный
Битрейт : 640 Кбит/сек
Каналы : 6 каналов
Расположение каналов : Front: L C R, Side: L R, LFE
Частота : 48,0 КГц
Частота кадров : 31,250 кадров/сек (1536 spf)
Битовая глубина : 16 бит
Метод сжатия : С потерями
Размер потока : 511 Мбайт (6%)
Язык : English
Default : Нет
Forced : Нет

Текст #1
Идентификатор : 5
Формат : UTF-8
Идентификатор кодека : S_TEXT/UTF8
Идентификатор кодека/Информация : UTF-8 Plain Text
Заголовок : forced
Язык : Russian
Default : Да
Forced : Нет

Текст #2
Идентификатор : 6
Формат : UTF-8
Идентификатор кодека : S_TEXT/UTF8
Идентификатор кодека/Информация : UTF-8 Plain Text
Язык : English
Default : Нет
Forced : Нет

Меню
00:00:00.000 : :Chapter 01
00:08:55.534 : :Chapter 02
00:16:09.969 : :Chapter 03
00:23:30.408 : :Chapter 04
00:29:16.421 : :Chapter 05
00:36:45.703 : :Chapter 06
00:43:58.636 : :Chapter 07
00:52:32.482 : :Chapter 08
00:57:09.759 : :Chapter 09
01:07:08.190 : :Chapter 10
01:14:02.604 : :Chapter 11
01:17:44.660 : :Chapter 12
01:22:37.118 : :Chapter 13
01:27:14.228 : :Chapter 14
01:34:03.137 : :Chapter 15
01:43:25.365 : :Chapter 16
01:51:37.899 : :Chapter 17



Скачать Наёмник.American.Assassin.(Майкл.Куэста).[2017.боевик.триллер.BDRip].[1080p].[Dub.(Лицензия.iTunes)]+[MVO.(Paradox.&.Omskbird)]+[Eng]+[Sub.Rus.Eng].torrent без регистрации
Золото ЗОЛОТАЯ РАЗДАЧА! СКАЧАННОЕ НЕ ЗАСЧИТЫВАЕТСЯ! Золото
Дата: Зарегистрирован   [ Тип: внутренний ] Как тут cкачать?
MAGNET ссылка
MAGNET ссылка


Скачать .torrent

21 KB

Статус: проверено DHT
Скачан: торрент - 89 раз, раздача полностью - 105 раз
Размер: 7,9 GB
Оценка:  - (Голосов: 0)
Поблагодарили: 8
Поделиться ссылкой на эту раздачу с друзьями:
В контактеFacebookОдноклассникиTwitterLivejournalМой МирLiveinternet
 

 
Показать сообщения:    


Вы не можете начинать темы
Вы не можете отвечать на сообщения
Вы не можете редактировать свои сообщения
Вы не можете удалять свои сообщения
Вы не можете голосовать в опросах
Вы не можете прикреплять файлы к сообщениям
Вы можете скачивать файлы