Loading...
Error

Скачать Королева красоты (01-12 из 12) (Карен Оганесян) [2015, мелодрама, WEB-DLRip] [1080p] торрент без регистрации

Статистика раздачи
Размер:  25,01 GB   |    Скачан:  23 раза
Сидов:  1  [  0 KB/s  ]  
 
 
 
Автор Сообщение

МихаНЕзатор

[] 

Информация о фильме
Название: Королева красоты
Год выхода: 2015
Жанр: мелодрама
Режиссер: Карен Оганесян

В ролях: Карина Андоленко, Павел Прилучный, Анастасия Задорожная, Владимир Жеребцов, Александр Тютин, Галина Петрова, Ольга Сухарева, Елена Старостина, Сергей Шнырёв, Луиза Мосендз, Ксения Буравская, Валерия Кожевникова, Павел Южаков-Харланчук, Алеся Пуховая, Валерия Арланова, Ксения Дементьева

О фильме: Красота простой деревенской девушки Катерины Пановой (Карина Андоленко) покорила мир. Она стала лицом советской моды 60-х годов и первой манекенщицей, признанной на Западе. Русской красавице рукоплескали Париж и Прага, пресса называла ее «национальным достоянием СССР», а дома ее ждала советская действительность, зависть, интриги, ревность и трагическая любовь… 1961 г. В небольшой подмосковной деревне живет семья Пановых. Отец Михаил ревнует жену к давнему прошлому. Поводом является его дочь-красавица Катя, которая совершенного не похожа на него, в отличие от своей сестры Любы.Катя отвергает всех местных кавалеров. Она верит, что ей уготована иная судьба. Ее заветная мечта — стать манекенщицей и отправиться в Париж.После очередного скандала с родителями Катерина решает осуществить за свою мечту. Она отправляется в Москву и просит помощи у молодого успешного модельера Вени Кротова. Он решает дать шанс деревенской девушке и устраивает ее демонстратором одежды.За короткое время Катя становится ведущей манекенщицей Дома Мод. Когда ее фотография появляется в газете, Катю находит журналист-международник Феликс Крутский. Он искал ее с тех пор, как увидел на танцах в деревенском клубе.Несмотря на то, что родители прочат ему в жены другую девушку — известную молодую киноактрису Марианну Нечаеву, Феликс назначает Катерине свидание.Чем обернется для Кати прекрасная сказка? Выдержит ли ее любовь испытание славой?

Релиз от:
Silverok

Страна: Россия
Студия: Кинокомпания "Киноград 21"
Продолжительность: 12 х ~ 00:45:00
Перевод: Не требуется

Файл
Кодек: h.264
Качество: WEB-DLRip 1080p
Видео: MPEG-4 AVC, ~ 6480 Кбит/с, 1920x1080, 25,000 кадр/с
Звук: Русский (AC3, 2 ch, 192 Кбит/с)
Субтитры: Нет

АНОНСЫ ПОПУЛЯРНЫХ РАЗДАЧ
General
Unique ID : 199417950416030249261365331898455929777 (0x9606800E1EC1339EBA0B70E1A129B3B1)
Complete name : D:uTorrentKoroleva.krasoty.2015.WEB-DLRip.1080pKoroleva.krasoty.(01.iz.12).2015.WEB-DLRip.1080p.MediaClub.mkv
Format : Matroska
Format version : Version 4 / Version 2
File size : 2.09 GiB
Duration : 45 min 48 s
Overall bit rate : 6 532 kb/s
Encoded date : UTC 2017-12-30 00:19:25
Writing application : mkvmerge v17.0.0 ('Be Ur Friend') 64-bit
Writing library : libebml v1.3.5 + libmatroska v1.4.8

Video
ID : 1
Format : AVC
Format/Info : Advanced Video Codec
Format profile : High@L4
Format settings : CABAC / 4 Ref Frames
Format settings, CABAC : Yes
Format settings, RefFrames : 4 frames
Codec ID : V_MPEG4/ISO/AVC
Duration : 45 min 48 s
Bit rate : 6 480 kb/s
Width : 1 920 pixels
Height : 1 080 pixels
Display aspect ratio : 16:9
Frame rate mode : Constant
Frame rate : 25.000 FPS
Color space : YUV
Chroma subsampling : 4:2:0
Bit depth : 8 bits
Scan type : Progressive
Bits/(Pixel*Frame) : 0.125
Stream size : 2.03 GiB (97%)
Title : WEB-DLRip by Silverok
Writing library : x264 core 148
Encoding settings : cabac=1 / ref=2 / deblock=1:0:0 / analyse=0x3:0x113 / me=hex / subme=4 / psy=1 / psy_rd=1.00:0.00 / mixed_ref=0 / me_range=16 / chroma_me=1 / trellis=1 / 8x8dct=1 / cqm=0 / deadzone=21,11 / fast_pskip=1 / chroma_qp_offset=0 / threads=24 / lookahead_threads=6 / sliced_threads=0 / nr=0 / decimate=1 / interlaced=0 / bluray_compat=0 / constrained_intra=0 / bframes=3 / b_pyramid=2 / b_adapt=1 / b_bias=0 / direct=1 / weightb=1 / open_gop=0 / weightp=1 / keyint=96 / keyint_min=24 / scenecut=0 / intra_refresh=0 / rc_lookahead=20 / rc=abr / mbtree=1 / bitrate=6480 / ratetol=1.0 / qcomp=0.60 / qpmin=0 / qpmax=69 / qpstep=4 / vbv_maxrate=7776 / vbv_bufsize=15552 / nal_hrd=none / filler=0 / ip_ratio=1.40 / aq=1:1.00
Default : Yes
Forced : No

Audio
ID : 2
Format : AC-3
Format/Info : Audio Coding 3
Codec ID : A_AC3
Duration : 45 min 48 s
Bit rate mode : Constant
Bit rate : 192 kb/s
Channel(s) : 2 channels
Channel positions : Front: L R
Sampling rate : 48.0 kHz
Frame rate : 31.250 FPS (1536 SPF)
Bit depth : 16 bits
Compression mode : Lossy
Stream size : 62.9 MiB (3%)
Language : Russian
Service kind : Complete Main
Default : Yes
Forced : No



Скачать Королева.красоты.(01-12.из.12).(Карен.Оганесян).[2015.мелодрама.WEB-DLRip].[1080p].torrent без регистрации
Золото ЗОЛОТАЯ РАЗДАЧА! СКАЧАННОЕ НЕ ЗАСЧИТЫВАЕТСЯ! Золото
Дата: Зарегистрирован   [ Тип: внутренний ] Как тут cкачать?
MAGNET ссылка
MAGNET ссылка


Скачать .torrent

65 KB

Статус: проверено DHT
Скачан: торрент - 23 раз, раздача полностью - 5 раз
Размер: 25,01 GB
Оценка:  - (Голосов: 0)
Поблагодарили: 0
Поделиться ссылкой на эту раздачу с друзьями:
В контактеFacebookОдноклассникиTwitterLivejournalМой МирLiveinternet
 

 
Показать сообщения:    


Вы не можете начинать темы
Вы не можете отвечать на сообщения
Вы не можете редактировать свои сообщения
Вы не можете удалять свои сообщения
Вы не можете голосовать в опросах
Вы не можете прикреплять файлы к сообщениям
Вы можете скачивать файлы